Вход на сайт

Имя:
Пароль:

· Забыли пароль?
logo
Портал Форум
Регистрация Вход


new_topic  reply_topic

  (Pop, Disco) Best Of The 80's Vol. 1 - 1996, FLAC (image + .cue) lossless

pic
Год выпуска: 1996
Производитель: Европа
Жанр: Pop, Disco
Номер #: 10010-2 (CMC Home Entertainment)
Продолжительность: 1:02:07

Тип издания: сборник
Аудио кодек: FLAC
Тип рипа: (image + .cue)
Битрейт аудио: lossless

Треклист:

  1. Pet Shop Boys - West End Girls
  2. Toni Basil - Mickey
  3. Bad Manners - Special Brew
  4. Kelly Marie - Feels Like I'm In Love
  5. Jive Bunny - Swing The Mood (Medley)
  6. Evelyn Thomas - High Energy
  7. Tom Jones - Move Closer
  8. A Flock Of Seagulls - Transfer Affection
  9. Simon Harris - Bass (How Low Can You Go)
  10. Samantha Fox - Touch Me (I Want Your Body)
  11. Big Fun - Can't Shake That Feeling
  12. Divine - You Think You're A Man
  13. Tight Fit - Fantasy Island
  14. Rankin' Roger Of The Beat - Hands Off She's Mine
  15. Mirage - Jack Mix IV (Medley)
  16. Barbara Pennington - On A Crowded Street


Код:

Exact Audio Copy V0.99 prebeta 5 from 4. May 2009

Отчёт EAC об извлечении, выполненном 17. января 2013, 0:52

Various Artists / Best Of The 80's Vol. 1

Дисковод: TSSTcorpCDDVDW SH-S223B   Adapter: 2  ID: 0

Режим чтения                 : Достоверность
Использование точного потока : Да
Отключение кэша аудио        : Да
Использование указателей C2  : Нет

Коррекция смещения при чтении                     : 6
Способность читать области Lead-in и Lead-out     : Нет
Заполнение пропущенных сэмплов тишиной            : Да
Удаление блоков с тишиной в начале и конце        : Нет
При вычислениях CRC использовались нулевые сэмплы : Да
Интерфейс                                         : Встроенный Win32-интерфейс для Win NT/2000

Выходной формат : Внутренние WAV-операции
Формат сэмплов  : 44.100 Гц; 16 бит; стерео

TOC извлечённого CD

     Трек |   Старт  | Длительность | Начальный сектор | Конечный сектор
    ---------------------------------------------------------------------
       1  |  0:00.00 |    5:19.42   |           0      |      23966     
       2  |  5:19.42 |    3:59.22   |       23967      |      41913     
       3  |  9:18.64 |    3:20.31   |       41914      |      56944     
       4  | 12:39.20 |    3:57.55   |       56945      |      74774     
       5  | 16:37.00 |    4:50.05   |       74775      |      96529     
       6  | 21:27.05 |    3:51.40   |       96530      |     113894     
       7  | 25:18.45 |    4:50.70   |      113895      |     135714     
       8  | 30:09.40 |    4:16.72   |      135715      |     154986     
       9  | 34:26.37 |    3:13.35   |      154987      |     169496     
      10  | 37:39.72 |    3:40.35   |      169497      |     186031     
      11  | 41:20.32 |    3:22.05   |      186032      |     201186     
      12  | 44:42.37 |    3:10.28   |      201187      |     215464     
      13  | 47:52.65 |    3:22.20   |      215465      |     230634     
      14  | 51:15.10 |    2:59.55   |      230635      |     244114     
      15  | 54:14.65 |    3:40.27   |      244115      |     260641     
      16  | 57:55.17 |    4:12.35   |      260642      |     279576     

Характеристики диапазона извлечения и сообщения об ошибках

Выбранный диапазон

     Имя файла K:\Зарубежные сборники\Best Of The 80's Vol. 1 (1996)\Best Of The 80's Vol. 1.wav

     Пиковый уровень 100.0 %
     Качество диапазона 100.0 %
     CRC теста DC3E7C53
     CRC копии DC3E7C53
     Копирование... OK

Ошибок не произошло

 
AccurateRip: сводка
 
Трек  1  точное извлечение (доверие 1)  [CF742EDC]
Трек  2  точное извлечение (доверие 1)  [740FA05E]
Трек  3  точное извлечение (доверие 1)  [E139CCAD]
Трек  4  точное извлечение (доверие 1)  [FD908A97]
Трек  5  точное извлечение (доверие 1)  [3C855ED4]
Трек  6  точное извлечение (доверие 1)  [61C6F460]
Трек  7  точное извлечение (доверие 1)  [6271014F]
Трек  8  точное извлечение (доверие 1)  [9BBAF9FC]
Трек  9  точное извлечение (доверие 1)  [535465D9]
Трек 10  точное извлечение (доверие 1)  [0C9E3D7A]
Трек 11  точное извлечение (доверие 1)  [245035F9]
Трек 12  точное извлечение (доверие 1)  [9B3C3945]
Трек 13  точное извлечение (доверие 1)  [FF89BB5D]
Трек 14  точное извлечение (доверие 1)  [1EE52D24]
Трек 15  точное извлечение (доверие 1)  [2BC7E544]
Трек 16  точное извлечение (доверие 1)  [5BD31CB3]
 
Все треки извлечены точно

Конец отчёта

Страница 1 из 1

new_topic  reply_topic

Текущее время: 18-Янв 12:04
Часовой пояс: GMT + 4

m Сделано с любовью PR-CY.ru Каталог webplus.info