Вход на сайт

Имя:
Пароль:

· Забыли пароль?
logo
Портал Форум
Регистрация Вход


new_topic  reply_topic

  (Trance) DJ Mind-X - Voyage (CDM) (2001), WAV (tracks + .cue), lossless

DJ Mind-X - Voyage

pic
Жанр: Trance
Страна: Switzerland
Год выпуска: 2001
Лейбл: Warner Music
Номер #: 0927438932
Продолжительность: 00:37:03

Тип издания: Maxi-Single
Аудио кодек: WAV
Тип рипа: (tracks + .cue)
Битрейт аудио: lossless

Треклист:

01. Voyage (Club Mix) (09:12)
02. Voyage (Single Edit) (03:39)
03. Voyage (Dogma Remix) (08:34)
04. Voyage (Mat Silver Remix) (08:57)
05. Voyage (Gary D. Remix) (06:38)

Код:

Exact Audio Copy V1.0 beta 3 from 29. August 2011

EAC extraction logfile from 26. January 2013, 10:09

DJ Mind-X / Voyage

Used drive  : Optiarc DVD RW AD-7200S   Adapter: 1  ID: 1

Read mode               : Secure
Utilize accurate stream : Yes
Defeat audio cache      : Yes
Make use of C2 pointers : No

Read offset correction                      : 48
Overread into Lead-In and Lead-Out          : No
Fill up missing offset samples with silence : Yes
Delete leading and trailing silent blocks   : No
Null samples used in CRC calculations       : Yes
Used interface                              : Native Win32 interface for Win NT & 2000
Gap handling                                : Appended to previous track

Used output format : Internal WAV Routines
Sample format      : 44.100 Hz; 16 Bit; Stereo

TOC of the extracted CD

     Track |   Start  |  Length  | Start sector | End sector
    ---------------------------------------------------------
        1  |  0:00.00 |  9:12.27 |         0    |    41426   
        2  |  9:12.27 |  3:39.57 |     41427    |    57908   
        3  | 12:52.09 |  8:34.61 |     57909    |    96519   
        4  | 21:26.70 |  8:57.39 |     96520    |   136833   
        5  | 30:24.34 |  6:38.61 |    136834    |   166744   

Track  1

     Filename C:\Users\Blaze\Desktop\DJ Mind-X - Voyage (CDM) (2001)\01. DJ Mind-X - Voyage (Club Mix).wav

     Pre-gap length  0:00:02.00

     Peak level 98.8 %
     Extraction speed 2.6 X
     Track quality 100.0 %
     Test CRC 78AFD6B5
     Copy CRC 78AFD6B5
     Copy OK

Track  2

     Filename C:\Users\Blaze\Desktop\DJ Mind-X - Voyage (CDM) (2001)\02. DJ Mind-X - Voyage (Single Edit).wav

     Pre-gap length  0:00:02.00

     Peak level 98.8 %
     Extraction speed 2.4 X
     Track quality 99.9 %
     Test CRC AFD8E9AA
     Copy CRC AFD8E9AA
     Copy OK

Track  3

     Filename C:\Users\Blaze\Desktop\DJ Mind-X - Voyage (CDM) (2001)\03. DJ Mind-X - Voyage (Dogma Remix).wav

     Pre-gap length  0:00:02.00

     Peak level 98.8 %
     Extraction speed 3.4 X
     Track quality 100.0 %
     Test CRC D0133C3D
     Copy CRC D0133C3D
     Copy OK

Track  4

     Filename C:\Users\Blaze\Desktop\DJ Mind-X - Voyage (CDM) (2001)\04. DJ Mind-X - Voyage (Mat Silver Remix).wav

     Pre-gap length  0:00:02.00

     Peak level 98.8 %
     Extraction speed 3.6 X
     Track quality 99.9 %
     Test CRC 7E63F4C4
     Copy CRC 7E63F4C4
     Copy OK

Track  5

     Filename C:\Users\Blaze\Desktop\DJ Mind-X - Voyage (CDM) (2001)\05. DJ Mind-X - Voyage (Gary D. Remix).wav

     Pre-gap length  0:00:02.00

     Peak level 100.0 %
     Extraction speed 4.1 X
     Track quality 100.0 %
     Test CRC 855EC84E
     Copy CRC 855EC84E
     Copy OK

No errors occurred

End of status report

==== Log checksum AAFDB9E4CF8E3595F251157FC4D7EF7634E28B8FB88F23B7A5D1B5D4C247CC2C ====

Код:

REM GENRE Trance
REM DATE 2001
REM DISCID 4608AF05
REM COMMENT "ExactAudioCopy v1.0b3"
CATALOG 0809274389329
PERFORMER "DJ Mind-X"
TITLE "Voyage"
FILE "01. DJ Mind-X - Voyage (Club Mix).wav" WAVE
  TRACK 01 AUDIO
    TITLE "Voyage (Club Mix)"
    PERFORMER "DJ Mind-X"
    ISRC CH1680200001
    INDEX 01 00:00:00
  TRACK 02 AUDIO
    TITLE "Voyage (Single Edit)"
    PERFORMER "DJ Mind-X"
    ISRC CH1680200002
    INDEX 00 09:10:27
FILE "02. DJ Mind-X - Voyage (Single Edit).wav" WAVE
    INDEX 01 00:00:00
  TRACK 03 AUDIO
    TITLE "Voyage (Dogma Remix)"
    PERFORMER "DJ Mind-X"
    ISRC CH1680200003
    INDEX 00 03:37:57
FILE "03. DJ Mind-X - Voyage (Dogma Remix).wav" WAVE
    INDEX 01 00:00:00
  TRACK 04 AUDIO
    TITLE "Voyage (Mat Silver Remix)"
    PERFORMER "DJ Mind-X"
    ISRC CH1680200004
    INDEX 00 08:32:61
FILE "04. DJ Mind-X - Voyage (Mat Silver Remix).wav" WAVE
    INDEX 01 00:00:00
  TRACK 05 AUDIO
    TITLE "Voyage (Gary D. Remix)"
    PERFORMER "DJ Mind-X"
    ISRC CH1680200005
    INDEX 00 08:55:39
FILE "05. DJ Mind-X - Voyage (Gary D. Remix).wav" WAVE
    INDEX 01 00:00:00
Доп. информация: Прошу модераторов поставить зеленый статус данной раздаче.
Thanks mate!
thanks

midwayblaze писал(а):

(Trance) DJ Mind-X - Voyage (CDM) (2001), WAV (tracks + .cue), lossless
Thanks!

Страница 1 из 1

new_topic  reply_topic

Текущее время: 20-Июн 00:07
Часовой пояс: GMT + 4

m Сделано с любовью PR-CY.ru Каталог webplus.info