Вход на сайт

Имя:
Пароль:

· Забыли пароль?
logo
Портал Форум
Регистрация Вход


new_topic  reply_topic

  (Pop) Various - DJ HITS vol.22 1995, FLAC (image + .cue), lossless

pic
Год выпуска: 1995
Страна: Болгария
Лейбл: Noname
Каталожный номер:124 905-1
Жанр: Pop
Продолжительность: 1:13:06
Аудио кодек: FLAC
Тип рипа: (image + .cue)
Битрейт аудио: lossless

Треклист:

1 Whigfield - Dance
2 Bass Bumpers - Good Fun (7' Radio Mix)
3 Marie Claire D'Ubaldo - The Rhythm Is Magic (Album Version)
4 Sophie B. Hawkins - Right Beside You 4
5 East 17 - Steam (Vapoureyes Mix)
6 Andru Donalds - Mishael (Single Mix)
7 Rock Steady Beat - Carry On (Radio Edit)
8 Ophelia - Hand In Hand (Vocal Single Mix)
9 B-Tronic - Power Of Love (Power Radio)
10 Loft - Wake The World (Leon vs Coin Radio Cut)
11 Snap - Welcome To Tomorrow (Are You Ready)
12 The Tyrrel Corporation - You're Not Here (7' Edit)
13 CJ Lewis - Best Of My Love (Radio Mix)
14 Dawn Penn - Night And Day (Baby I Love You So) (Radio Edit)
15 Michelle Dayle - Sweetness (Radio Mix)
16 Billy Idol - Speed (Single Version)
17 Wet Wet Wet - Good Night Girl' 94
18 Luther Vandross & Mariah Carey - Endless Love

Код:

Exact Audio Copy V1.0 beta 1 from 15. November 2010

Отчёт EAC об извлечении, выполненном 15. февраля 2013, 0:34

Various Artist / DJ Hits 22

Дисковод: ASUS    DRW-24B1LT   Adapter: 1  ID: 0

Режим чтения                 : Достоверность
Использование точного потока : Да
Отключение кэша аудио        : Да
Использование указателей C2  : Нет

Коррекция смещения при чтении                     : 6
Способность читать области Lead-in и Lead-out     : Нет
Заполнение пропущенных сэмплов тишиной            : Да
Удаление блоков с тишиной в начале и конце        : Нет
При вычислениях CRC использовались нулевые сэмплы : Да
Интерфейс                                         : Встроенный Win32-интерфейс для Win NT/2000

Выходной формат : Внутренние WAV-операции
Формат сэмплов  : 44.100 Гц; 16 бит; стерео

TOC извлечённого CD

     Трек |   Старт  | Длительность | Начальный сектор | Конечный сектор
    ---------------------------------------------------------------------
       1  |  0:00.00 |    4:09.62   |           0      |      18736     
       2  |  4:09.62 |    3:37.40   |       18737      |      35051     
       3  |  7:47.27 |    4:04.00   |       35052      |      53351     
       4  | 11:51.27 |    4:49.03   |       53352      |      75029     
       5  | 16:40.30 |    3:24.17   |       75030      |      90346     
       6  | 20:04.47 |    4:04.00   |       90347      |     108646     
       7  | 24:08.47 |    4:07.70   |      108647      |     127241     
       8  | 28:16.42 |    4:11.28   |      127242      |     146094     
       9  | 32:27.70 |    3:35.32   |      146095      |     162251     
      10  | 36:03.27 |    4:00.10   |      162252      |     180261     
      11  | 40:03.37 |    4:17.23   |      180262      |     199559     
      12  | 44:20.60 |    4:14.10   |      199560      |     218619     
      13  | 48:34.70 |    3:52.05   |      218620      |     236024     
      14  | 52:27.00 |    3:52.12   |      236025      |     253436     
      15  | 56:19.12 |    3:41.25   |      253437      |     270036     
      16  | 60:00.37 |    4:23.38   |      270037      |     289799     
      17  | 64:24.00 |    4:21.70   |      289800      |     309444     
      18  | 68:45.70 |    4:20.40   |      309445      |     328984     

Характеристики диапазона извлечения и сообщения об ошибках

Выбранный диапазон

     Имя файла T:\Wave\VA - DJ Hits 22\VA - DJ Hits 22.wav

     Пиковый уровень 100.0 %
0.3 X
     Качество диапазона 99.9 %
     CRC теста 716F7CA9
     CRC копии 716F7CA9
     Копирование... OK

Ошибок не произошло

Конец отчёта

====  1D11B6CECDB088231A9D4979C524547C5648FE746D7229CFD45BFBB1146304B7 ====
Jam666jam
номерки к релизам можно увидеть? Дооформите пожалуйста!
Добавил ко всем трём...

Страница 1 из 1

new_topic  reply_topic

Текущее время: 25-Янв 10:31
Часовой пояс: GMT + 4

m Сделано с любовью PR-CY.ru Каталог webplus.info