Вход на сайт

Имя:
Пароль:

· Забыли пароль?
logo
Портал Форум
Регистрация Вход


new_topic  reply_topic

  (Pop) Various - DJ HITS vol.201 1996, FLAC (image + .cue), lossless

pic
Год выпуска: 1996
Страна: Болгария
Лейбл: Noname
Каталожный номер:KJF-12-96 \ DJH201-16
Жанр: Pop
Продолжительность: 1:03:43
Тип издания: сборник
Аудио кодек: FLAC
Тип рипа: (image + .cue)
Битрейт аудио: lossless

Треклист:

01 Sampana – Tic Tic Tac 3:18
02 Clock – Oh What A Night (Radio Mix) 3:26
03 Candy Bomb – Loop D'Loop (Blow Up Club) 5:21
04 Black Nero – Ring My Bell 3:13
05 Lady Dee – Give Me Love 3:41
06 Outhere Brothers, The – Ole Ole 5:19
07 Joy Society, The Feat. Caesar Guess – White Horse 3:38
08 Capital Sound – Give A Little Love 3:53
09 Jaade – Move It Baby (Club Mix) 5:50
10 Pianonegro – In Africa (Old World Groove) 4:11
11 Jefferson Project – Do It With Me (Club Mix) 5:05
12 Secchi* presents Oscar* – Children / Voyage (Extended Mix) 7:44
13 K.M. Passion – Another Cup Of Coffee (Transport Mix) 5:32
14 2 Brothers On The 4th Floor Feat. Des'Ray & D-Rock – Mirror Of Love (Radio Version) 3:30

Код:

http://www.discogs.com/Various-DJ-Hits-Vol-201/release/3788665
Durations from cd - not from cover (cause its practically different)

01 track (Sampana) incorrectly described as Karaoke - Tic Tic Tac (Remix '97).
04 track (Black Nero) incorrectly described as DJ Black Feat. Anita Ward - Ring My Bell (7'' Re-Mix).
05 track (Lady Dee) incorrectly described as Anticappella - Give Me Love (Power Mix).
06 track (The Outhere Brothers) incorrectly described as Dance Squad - Ole Ole (Party Remix).
07 track as Laid Back Feat. Caesar - White Horse '97 (Race Mix)
08 track (Capital Sound ?– Give A Little Love) incorrectly described as Jam & Spoon Feat. Plavka - Give A Little Love (Mike Romeo-Jam El Mar Mark Spoon Euro Mix)
09 track (Jaade) incorrectly described as Lee Marrow Feat. Corona.
10 track (Pianonegro) incorrectly described as Ethnic Beat - In Africa (Groove Drum Mix).
11 track (Jefferson Project) incorrectly described as Magic Affair.
12 track (Secchi pres. Oscar - Children / Voyage) incorrectly described as Robert Myles feat. Orlando Secchi - Trance Trip (Extended Voyage Remix).
13 track (K.M. Passion) incorrectly described as Fun-House.

Код:

Exact Audio Copy V1.0 beta 1 from 15. November 2010

Отчёт EAC об извлечении, выполненном 15. февраля 2013, 15:46

Various / DJ Hits 201

Дисковод: ASUS    DRW-24B1LT   Adapter: 1  ID: 0

Режим чтения                 : Достоверность
Использование точного потока : Да
Отключение кэша аудио        : Да
Использование указателей C2  : Нет

Коррекция смещения при чтении                     : 6
Способность читать области Lead-in и Lead-out     : Нет
Заполнение пропущенных сэмплов тишиной            : Да
Удаление блоков с тишиной в начале и конце        : Нет
При вычислениях CRC использовались нулевые сэмплы : Да
Интерфейс                                         : Встроенный Win32-интерфейс для Win NT/2000

Выходной формат : Внутренние WAV-операции
Формат сэмплов  : 44.100 Гц; 16 бит; стерео

TOC извлечённого CD

     Трек |   Старт  | Длительность | Начальный сектор | Конечный сектор
    ---------------------------------------------------------------------
       1  |  0:00.00 |    3:18.14   |           0      |      14863     
       2  |  3:18.14 |    3:26.23   |       14864      |      30336     
       3  |  6:44.37 |    5:20.73   |       30337      |      54409     
       4  | 12:05.35 |    3:12.40   |       54410      |      68849     
       5  | 15:18.00 |    3:41.36   |       68850      |      85460     
       6  | 18:59.36 |    5:18.62   |       85461      |     109372     
       7  | 24:18.23 |    3:38.28   |      109373      |     125750     
       8  | 27:56.51 |    3:53.23   |      125751      |     143248     
       9  | 31:49.74 |    5:50.01   |      143249      |     169499     
      10  | 37:40.00 |    4:11.29   |      169500      |     188353     
      11  | 41:51.29 |    5:05.37   |      188354      |     211265     
      12  | 46:56.66 |    7:43.68   |      211266      |     246058     
      13  | 54:40.59 |    5:32.26   |      246059      |     270984     
      14  | 60:13.10 |    3:30.27   |      270985      |     286761     

Характеристики диапазона извлечения и сообщения об ошибках

Выбранный диапазон

     Имя файла T:\Wave\VA - DJ Hits 201\VA - DJ Hits 201.wav

     Пиковый уровень 100.0 %
0.3 X
     Качество диапазона 100.0 %
     CRC теста B0875CD9
     CRC копии B0875CD9
     Копирование... OK

Ошибок не произошло

Конец отчёта

====  9D9AC04ADF49CE7542D8F03C0100B6858527E218F529115F18F88C974DECE1B3 ====

Страница 1 из 1

new_topic  reply_topic

Текущее время: 25-Янв 11:37
Часовой пояс: GMT + 4

m Сделано с любовью PR-CY.ru Каталог webplus.info