Вход на сайт

Имя:
Пароль:

· Забыли пароль?
logo
Портал Форум
Регистрация Вход


new_topic  reply_topic

  (Euro House, Eurodance, Trance, Happy HardCore) Mega Dance Mix '96-Vol.1 - The Full Speed Dance Trip 1996, FLAC (image + .cue), lossless

pic
Год выпуска: 1996
Производитель: Netherlands
Жанр: House, Dance, Euro House, Eurodance, Trance, Happy HardCore
Лэйбл - Номер #: Arcade – 01.10264
Продолжительность: 01:15:47

Тип издания: сборник
Аудио кодек: FLAC
Тип рипа: (image + .cue)
Битрейт аудио: lossless

Треклист:

01 - TCM – The Full Speed Dance Trip (3:00)
02 - Alcatraz – Giv Me Luv (2:49)
03 - Heller & Farley Project – Ultra Flava (3:03)
04 - D-Xpress Farida MervilleFeat. Farida Merville – Spank (2:09)
05 - Lil Mo' Yin Yang – Reach (2:37)
06 - King Bee – Trip To India (2:54)
07 - T-Spoon – Rockstar (1:21)
08 - Gat Decor – Passion (3:34)
09 - Tanya Louise – Deep In You (Stone Club Mix) (1:14)
10 - Juan Wells – Round & Round (3:03)
11 - Kasjmir – Gitano De Genio (2:28)
12 - Plug & Play – House Your Body (2:52)
13 - N-Trance – Electronic (2:23)
14 - Zhi-Vago – Celebrate The Love (1:16)
15 - Tak Tix – Feel Like Singing (2:17)
16 - Over Files – Children (2:34)
17 - 2 Fabiola – Play The Song (2:33)
18 - The Un-Xplained – Theme From The X-Files (2:45)
19 - Doop – Ridin' (Radio Version) (2:27)
20 - Snap! – Rame (2:58)
21 - 2 Unlimited – Jump For Joy (2:41)
22 - Paul Elstak – The Promised Land (2:51)
23 - 2 Brothers On The 4th Floor – Fairytales (Radio Version) (2:51)
24 - Ross & Iba – Wassenaar (Partymix) (1:45)
25 - Party Animals – Hava Naquila (2:07)
26 - Ohm – Trip To Paradise (2:37)
27 - Scooter – Let Me Be Your Valentine (2:40)
28 - Wonderland – Be On A Star (2:26)
29 - Cixx – Ride To The Rhytm (2:24)
30 - Charly Lownoise & Mental Theo – Your Smile (2:25)

Доп. информация: Этот диск был мной куплен в ОАЭ. Сканы обложек, диска и матрицы диска сделаны с разрешением 600 dpi.

Код:

Exact Audio Copy V1.0 beta 2 from 29. April 2011

Отчёт EAC об извлечении, выполненном 18. апреля 2012, 20:57

Various / Mega Dance Mix '96-Vol.1 - The Full Speed Dance Trip

Дисковод: ASUS    DRW-2014L1T   Adapter: 4  ID: 0

Режим чтения                 : Достоверность
Использование точного потока : Да
Отключение кэша аудио        : Да
Использование указателей C2  : Нет

Коррекция смещения при чтении                     : 6
Способность читать области Lead-in и Lead-out     : Нет
Заполнение пропущенных сэмплов тишиной            : Да
Удаление блоков с тишиной в начале и конце        : Нет
При вычислениях CRC использовались нулевые сэмплы : Да
Интерфейс                                         : Встроенный Win32-интерфейс для Win NT/2000

Выходной формат          : Пользовательский кодировщик
Выбранный битрейт        : 1024 kBit/s
Качество                 : Высокий
Добавление ID3-тега      : Нет
Утилита сжатия           : C:\Program Files\Exact Audio Copy\FLAC\FLAC.EXE
Дополнительные параметры : -6 -V -T "ARTIST=%artist%" -T "TITLE=%title%" -T "ALBUM=%albumtitle%" -T "DATE=%year%" -T "TRACKNUMBER=%tracknr%" -T "GENRE=%genre%" -T "COMMENT=%comment%" -T "BAND=%albuminterpret%" -T "COMPOSER=%composer%" %haslyrics%--tag-from-

TOC извлечённого CD

     Трек |   Старт  | Длительность | Начальный сектор | Конечный сектор
    ---------------------------------------------------------------------
       1  |  0:00.00 |    2:59.55   |           0      |      13479     
       2  |  2:59.55 |    2:49.14   |       13480      |      26168     
       3  |  5:48.69 |    3:02.61   |       26169      |      39879     
       4  |  8:51.55 |    2:09.05   |       39880      |      49559     
       5  | 11:00.60 |    2:36.67   |       49560      |      61326     
       6  | 13:37.52 |    2:34.70   |       61327      |      72946     
       7  | 16:12.47 |    1:21.40   |       72947      |      79061     
       8  | 17:34.12 |    3:34.13   |       79062      |      95124     
       9  | 21:08.25 |    1:14.02   |       95125      |     100676     
      10  | 22:22.27 |    3:02.55   |      100677      |     114381     
      11  | 25:25.07 |    2:28.05   |      114382      |     125486     
      12  | 27:53.12 |    2:52.28   |      125487      |     138414     
      13  | 30:45.40 |    3:23.17   |      138415      |     153656     
      14  | 34:08.57 |    1:16.33   |      153657      |     159389     
      15  | 35:25.15 |    2:17.02   |      159390      |     169666     
      16  | 37:42.17 |    2:33.70   |      169667      |     181211     
      17  | 40:16.12 |    2:32.70   |      181212      |     192681     
      18  | 42:49.07 |    2:45.27   |      192682      |     205083     
      19  | 45:34.34 |    2:27.71   |      205084      |     216179     
      20  | 48:02.30 |    2:57.65   |      216180      |     229519     
      21  | 51:00.20 |    2:41.35   |      229520      |     241629     
      22  | 53:41.55 |    2:50.52   |      241630      |     254431     
      23  | 56:32.32 |    2:50.73   |      254432      |     267254     
      24  | 59:23.30 |    1:45.27   |      267255      |     275156     
      25  | 61:08.57 |    2:07.08   |      275157      |     284689     
      26  | 63:15.65 |    2:36.52   |      284690      |     296441     
      27  | 65:52.42 |    2:39.53   |      296442      |     308419     
      28  | 68:32.20 |    2:26.10   |      308420      |     319379     
      29  | 70:58.30 |    2:24.22   |      319380      |     330201     
      30  | 73:22.52 |    2:25.05   |      330202      |     341081     

Характеристики диапазона извлечения и сообщения об ошибках

Выбранный диапазон

     Имя файла E:\This EAC has made Federal\Various - Mega Dance Mix '96-Vol.1 - The Full Speed Dance Trip.wav

     Пиковый уровень 100.0 %
     Скорость извлечения 8.2 X
     Качество диапазона 99.9 %
     CRC теста D7129FB3
     CRC копии D7129FB3
     Копирование... OK

Ошибок не произошло

 
AccurateRip: сводка
 
Трек  1  : извлечено точно (доверие 1)  [9103ACD9]  (AR v2)
Трек  2  : извлечено точно (доверие 1)  [8140F25F]  (AR v2)
Трек  3  : извлечено точно (доверие 1)  [DCE1E1AE]  (AR v2)
Трек  4  : извлечено точно (доверие 1)  [58F634CA]  (AR v2)
Трек  5  : извлечено точно (доверие 1)  [F2FE6AB3]  (AR v2)
Трек  6  : извлечено точно (доверие 1)  [95DE39DE]  (AR v2)
Трек  7  : извлечено точно (доверие 1)  [2EE96C3A]  (AR v2)
Трек  8  : извлечено точно (доверие 1)  [4722B381]  (AR v2)
Трек  9  : извлечено точно (доверие 1)  [35406D62]  (AR v2)
Трек 10  : извлечено точно (доверие 1)  [AEEDCCA1]  (AR v2)
Трек 11  : извлечено точно (доверие 1)  [C49BAAC9]  (AR v2)
Трек 12  : извлечено точно (доверие 1)  [91B11AC2]  (AR v2)
Трек 13  : извлечено точно (доверие 1)  [DD580ADE]  (AR v2)
Трек 14  : извлечено точно (доверие 1)  [95E7804E]  (AR v2)
Трек 15  : извлечено точно (доверие 1)  [DEEA17DA]  (AR v2)
Трек 16  : извлечено точно (доверие 1)  [9C63F99A]  (AR v2)
Трек 17  : извлечено точно (доверие 1)  [7E1BFE5D]  (AR v2)
Трек 18  : извлечено точно (доверие 1)  [ECD1795D]  (AR v2)
Трек 19  : извлечено точно (доверие 1)  [23AE75EB]  (AR v2)
Трек 20  : извлечено точно (доверие 1)  [A6EBD4C9]  (AR v2)
Трек 21  : извлечено точно (доверие 1)  [BB201248]  (AR v2)
Трек 22  : извлечено точно (доверие 1)  [BA91920F]  (AR v2)
Трек 23  : извлечено точно (доверие 1)  [9C03C0A4]  (AR v2)
Трек 24  : извлечено точно (доверие 1)  [52DF8E01]  (AR v2)
Трек 25  : извлечено точно (доверие 1)  [D3E5D6BB]  (AR v2)
Трек 26  : извлечено точно (доверие 1)  [067D859E]  (AR v2)
Трек 27  : извлечено точно (доверие 1)  [27E40D8D]  (AR v2)
Трек 28  : извлечено точно (доверие 1)  [0AB563E6]  (AR v2)
Трек 29  : извлечено точно (доверие 1)  [B4777048]  (AR v2)
Трек 30  : извлечено точно (доверие 1)  [0EDA0C6F]  (AR v2)
 
Все треки извлечены точно

Конец отчёта
Единственный релиз, который у меня есть в виде "образа".

Для меломанов.
Federal
рекомендуется оставить в заголовке 2 основных жанра, а именно Eurodance, Euro House, остальные будут лишними уже, а то получается небольшая путаница в разделах.

[FAQ] Инструкция по заполнению шаблона к релизу

Страница 1 из 1

new_topic  reply_topic

Текущее время: 18-Янв 11:41
Часовой пояс: GMT + 4

m Сделано с любовью PR-CY.ru Каталог webplus.info