Вход на сайт

Имя:
Пароль:

· Забыли пароль?
logo
Портал Форум
Регистрация Вход


new_topic  reply_topic

  (Pop) Various Artists - MTV Dance Hits Vol. 8 1997, APE (image + .cue), lossless

pic
Год выпуска: 1997
Производитель: England
Жанр: Pop
Номер #: PRCD 130310 ( Pussy Records UK )
Продолжительность: CD 1 71:37 CD 2 73:57

Тип издания: сборник
Аудио кодек: APE
Тип рипа: (image + .cue)
Битрейт аудио: lossless

Треклист:

CD 1

01. Backstreet Boys - Anywhere For You
02. Captain Love - The Love Beat
03. E-Type - Back In The Loop
04. Bee Gees - Alone
05. 2 Be 3 - Toujours La Pour Toi ( Never Gonna Give U Up )
06. Charly Lownoise & Menthal Theo - Party
07. X-Perience - Magic Field' s
08. Joselyn Enriquez - Do You Miss Me
09. N-Sync - Tearing Up My Heart
10. Peter Andre - Natural
11. Yello - To The Sea
12. Boyzone - Isn' t It A Wonder
13. Real Mc' Coy - One More Time
14. Temperance - Forever Young
15. Byron Stingily - Get Up
16. Pharao - Temple Of Love
17. Chicane - Off Shore
18. Kelly Family - Never Gonna Break Me Down

CD 2

01. Red 5 - I Love U ... Stop
02. MC Lyte - Cold Rock A Party
03. Three 'n' Harmony - Reflect
04. Bed & Breakfast - Falling In Love
05. M. R. - To France
06. En Vogue - Don' t Let Go ( Love )
07. The BlueBoy - Remember Me
08. Tic Tac Toe - Verpib Dich
09. Spice Girls - Who Do You Think You Are
10. R. Kelly - I Believe I Can Fly
11. Robin S - Givin' U All That I' ve Got
12. Human Nature - Tellin' Everybody
13. Marusha - Ur Life
14. Baby D - Let Me Be You' r Fantasy
15. Aerosmith - Falling In Love ( It' s Hard On The Knees )
16. Eternal - Don' t You Love Me
17. Heart Attack - I Was Made For Loving You
18. Jean Michael Jarre - Oxygen 8

Доп. информация: CD 1: 3, 15 MP3, CD 2: 2, 11 MP3 Зелёным поставьте пока, пожалуйста.

Код:

Exact Audio Copy V0.99 prebeta 5 from 4. May 2009

Отчёт EAC об извлечении, выполненном 29. апреля 2013, 21:13

Various  Artists / MTV  Dance  Hits  Vol. 8  CD 1

Дисковод: Optiarc DVD RW AD-7263S   Adapter: 5  ID: 0

Режим чтения                 : Достоверность
Использование точного потока : Да
Отключение кэша аудио        : Да
Использование указателей C2  : Нет

Коррекция смещения при чтении                     : 48
Способность читать области Lead-in и Lead-out     : Нет
Заполнение пропущенных сэмплов тишиной            : Да
Удаление блоков с тишиной в начале и конце        : Нет
При вычислениях CRC использовались нулевые сэмплы : Да
Интерфейс                                         : Встроенный Win32-интерфейс для Win NT/2000

Выходной формат          : Monkey's Audio (без потерь)
Выбранный битрейт        : Extra High Lossless Compression
Качество                 : Высокий
Добавление ID3-тэга      : Нет
Утилита сжатия           : E:\Program Files\Monkey's Audio\MAC.exe
Дополнительные параметры : -w "Artist=%a" -w "Title=%t" -w "Album=%g" -w "Year=%y" -w "Track=%n" -w "Genre=%m" -h %s %d

TOC извлечённого CD

     Трек |   Старт  | Длительность | Начальный сектор | Конечный сектор
    ---------------------------------------------------------------------
       1  |  0:00.00 |    4:43.02   |           0      |      21226     
       2  |  4:43.02 |    3:48.28   |       21227      |      38354     
       3  |  8:31.30 |    3:27.40   |       38355      |      53919     
       4  | 11:58.70 |    4:49.30   |       53920      |      75624     
       5  | 16:48.25 |    3:14.62   |       75625      |      90236     
       6  | 20:03.12 |    4:43.23   |       90237      |     111484     
       7  | 24:46.35 |    5:34.40   |      111485      |     136574     
       8  | 30:21.00 |    3:38.60   |      136575      |     152984     
       9  | 33:59.60 |    3:29.62   |      152985      |     168721     
      10  | 37:29.47 |    4:09.08   |      168722      |     187404     
      11  | 41:38.55 |    3:53.42   |      187405      |     204921     
      12  | 45:32.22 |    3:44.25   |      204922      |     221746     
      13  | 49:16.47 |    3:51.63   |      221747      |     239134     
      14  | 53:08.35 |    3:52.12   |      239135      |     256546     
      15  | 57:00.47 |    3:26.50   |      256547      |     272046     
      16  | 60:27.22 |    3:28.10   |      272047      |     287656     
      17  | 63:55.32 |    3:08.73   |      287657      |     301829     
      18  | 67:04.30 |    4:32.50   |      301830      |     322279     

Характеристики диапазона извлечения и сообщения об ошибках

Выбранный диапазон

     Имя файла D:\Bit Torrent\Новая папка\Various  Artists - MTV  Dance  Hits  1997\Various  Artists - MTV  Dance  Hits  Vol. 8  CD 1\Various  Artists - MTV  Dance  Hits  Vol. 8  CD 1.wav

     Пиковый уровень 100.0 %
     Качество диапазона 100.0 %
     CRC теста 29E99D48
     CRC копии 29E99D48
     Копирование... OK

Ошибок не произошло

 
AccurateRip: сводка
 
Трек  1  нет в базе данных
Трек  2  нет в базе данных
Трек  3  нет в базе данных
Трек  4  нет в базе данных
Трек  5  нет в базе данных
Трек  6  нет в базе данных
Трек  7  нет в базе данных
Трек  8  нет в базе данных
Трек  9  нет в базе данных
Трек 10  нет в базе данных
Трек 11  нет в базе данных
Трек 12  нет в базе данных
Трек 13  нет в базе данных
Трек 14  нет в базе данных
Трек 15  нет в базе данных
Трек 16  нет в базе данных
Трек 17  нет в базе данных
Трек 18  нет в базе данных
 
Ни одного трека нет в базе AccurateRip

Конец отчёта

Код:

Exact Audio Copy V0.99 prebeta 5 from 4. May 2009

Отчёт EAC об извлечении, выполненном 29. апреля 2013, 22:06

Various  Artists / MTV  Dance  Hits  Vol. 8  CD 2

Дисковод: Optiarc DVD RW AD-7263S   Adapter: 5  ID: 0

Режим чтения                 : Достоверность
Использование точного потока : Да
Отключение кэша аудио        : Да
Использование указателей C2  : Нет

Коррекция смещения при чтении                     : 48
Способность читать области Lead-in и Lead-out     : Нет
Заполнение пропущенных сэмплов тишиной            : Да
Удаление блоков с тишиной в начале и конце        : Нет
При вычислениях CRC использовались нулевые сэмплы : Да
Интерфейс                                         : Встроенный Win32-интерфейс для Win NT/2000

Выходной формат          : Monkey's Audio (без потерь)
Выбранный битрейт        : Extra High Lossless Compression
Качество                 : Высокий
Добавление ID3-тэга      : Нет
Утилита сжатия           : E:\Program Files\Monkey's Audio\MAC.exe
Дополнительные параметры : -w "Artist=%a" -w "Title=%t" -w "Album=%g" -w "Year=%y" -w "Track=%n" -w "Genre=%m" -h %s %d

TOC извлечённого CD

     Трек |   Старт  | Длительность | Начальный сектор | Конечный сектор
    ---------------------------------------------------------------------
       1  |  0:00.00 |    3:48.73   |           0      |      17172     
       2  |  3:48.73 |    4:14.27   |       17173      |      36249     
       3  |  8:03.25 |    3:53.25   |       36250      |      53749     
       4  | 11:56.50 |    5:04.53   |       53750      |      76602     
       5  | 17:01.28 |    3:48.07   |       76603      |      93709     
       6  | 20:49.35 |    4:05.63   |       93710      |     112147     
       7  | 24:55.23 |    3:51.05   |      112148      |     129477     
       8  | 28:46.28 |    3:34.30   |      129478      |     145557     
       9  | 32:20.58 |    4:00.55   |      145558      |     163612     
      10  | 36:21.38 |    5:21.57   |      163613      |     187744     
      11  | 41:43.20 |    4:03.68   |      187745      |     206037     
      12  | 45:47.13 |    4:03.00   |      206038      |     224262     
      13  | 49:50.13 |    5:55.50   |      224263      |     250937     
      14  | 55:45.63 |    3:30.37   |      250938      |     266724     
      15  | 59:16.25 |    3:26.58   |      266725      |     282232     
      16  | 62:43.08 |    3:48.00   |      282233      |     299332     
      17  | 66:31.08 |    3:41.20   |      299333      |     315927     
      18  | 70:12.28 |    3:45.35   |      315928      |     332837     

Характеристики диапазона извлечения и сообщения об ошибках

Выбранный диапазон

     Имя файла D:\Bit Torrent\Новая папка\Various  Artists - MTV  Dance  Hits  1997\Various  Artists - MTV  Dance  Hits  Vol. 8  CD 2\Various  Artists - MTV  Dance  Hits  Vol. 8  CD 2.wav

     Пиковый уровень 100.0 %
     Качество диапазона 100.0 %
     CRC теста 654F4F2D
     CRC копии 654F4F2D
     Копирование... OK

Ошибок не произошло

 
AccurateRip: сводка
 
Трек  1  нет в базе данных
Трек  2  нет в базе данных
Трек  3  нет в базе данных
Трек  4  нет в базе данных
Трек  5  нет в базе данных
Трек  6  нет в базе данных
Трек  7  нет в базе данных
Трек  8  нет в базе данных
Трек  9  нет в базе данных
Трек 10  нет в базе данных
Трек 11  нет в базе данных
Трек 12  нет в базе данных
Трек 13  нет в базе данных
Трек 14  нет в базе данных
Трек 15  нет в базе данных
Трек 16  нет в базе данных
Трек 17  нет в базе данных
Трек 18  нет в базе данных
 
Ни одного трека нет в базе AccurateRip

Конец отчёта
how to download?

Страница 1 из 1

new_topic  reply_topic

Текущее время: 25-Янв 11:38
Часовой пояс: GMT + 4

m Сделано с любовью PR-CY.ru Каталог webplus.info