Вход на сайт

Имя:
Пароль:

· Забыли пароль?
logo
Портал Форум
Регистрация Вход


new_topic  reply_topic

  (House) Various Artists - Promo Only Import Club April '98, (Compilation, Unmixed), 1998, FLAC (tracks + .cue), lossless

pic
Год выпуска: 1998
Страна: Us
Производитель: Us
Жанр: House
Номер #: Promo Only ‎– POIC0498
Тип издания: сборник
Аудио кодек: FLAC
Тип рипа: (tracks + .cue)
Битрейт аудио: lossless

Треклист:

1) Crustation - Purple (Freestylers Remix)
2) The Son - Hold On U (Bass 4 Yo' Face Mix)
3) Dominion - Fortunes (VOX Mix)
4) Orinoko - Mama Konda (Timo Maas "Low Budget" Remix)
5) Funky Fukumi Feat. The Rhythm Scientist - R U Ready (Original Mix)
6) The Morphanage - Your Mind (Elektro Mix)
7) Soundscape - Dubplate Culture (Original Mix)
8) Andy Jarrod - Storm Cycle (Main Mix)
9) Andy Ling - Anuna (Part 1)


Доп. информация:
_______________________________________________
http://www.discogs.com/Various-Promo-Only-Import-Club-April-98/release/4206845

Код:

Exact Audio Copy V1.0 beta 3 from 29. August 2011

EAC extraction logfile from 5. July 2012, 17:15

Various Artists / Promo Only IMPORT 199804

Used drive  : Optiarc DVD+-RW AD-7560S   Adapter: 1  ID: 0

Read mode               : Secure
Utilize accurate stream : Yes
Defeat audio cache      : Yes
Make use of C2 pointers : No

Read offset correction                      : 6
Overread into Lead-In and Lead-Out          : No
Fill up missing offset samples with silence : Yes
Delete leading and trailing silent blocks   : No
Null samples used in CRC calculations       : Yes
Used interface                              : Native Win32 interface for Win NT & 2000
Gap handling                                : Appended to previous track

Used output format              : User Defined Encoder
Selected bitrate                : 1024 kBit/s
Quality                         : High
Add ID3 tag                     : No
Command line compressor         : С:\Program Files\Exact Audio Copy\Flac\flac.exe
Additional command line options : -8 -V -T "ARTIST=%artist%" -T "TITLE=%title%" -T "ALBUM=%albumtitle%" -T "DATE=%year%" -T "TRACKNUMBER=%tracknr%" -T "GENRE=%genre%" -T "PERFORMER=%albuminterpret%" -T "COMPOSER=%composer%" %haslyrics%--tag-from-file=LYRICS="%lyricsfile%"%haslyrics% -T "ALBUMARTIST=%albumartist%" -T "DISCNUMBER=%cdnumber%" -T "TOTALDISCS=%totalcds%" -T "TOTALTRACKS=%numtracks%" -T "COMMENT=%comment%" %source% -o %dest%

TOC of the extracted CD

     Track |   Start  |  Length  | Start sector | End sector
    ---------------------------------------------------------
        1  |  0:00.00 |  7:35.42 |         0    |    34166   
        2  |  7:35.42 |  8:41.19 |     34167    |    73260   
        3  | 16:16.61 |  9:47.31 |     73261    |   117316   
        4  | 26:04.17 |  6:47.43 |    117317    |   147884   
        5  | 32:51.60 |  8:03.20 |    147885    |   184129   
        6  | 40:55.05 |  7:17.53 |    184130    |   216957   
        7  | 48:12.58 |  7:45.71 |    216958    |   251903   
        8  | 55:58.54 |  9:01.12 |    251904    |   292490   
        9  | 64:59.66 | 10:05.10 |    292491    |   337875   

Track  1

     Filename D:\Compiliation\Various Artists - Promo Only Import Club April 1998\01 - Crustation Purple (Freestylers Remix).wav

     Pre-gap length  0:00:02.00

     Peak level 95.2 %
     Extraction speed 5.0 X
     Track quality 100.0 %
     Test CRC 719A1C01
     Copy CRC 719A1C01
     Track not present in AccurateRip database
     Copy OK

Track  2

     Filename D:\Compiliation\Various Artists - Promo Only Import Club April 1998\02 - The Son Hold On You (Bass 4 Yo' Face Mix).wav

     Peak level 100.0 %
     Extraction speed 5.9 X
     Track quality 99.9 %
     Test CRC C65BF326
     Copy CRC C65BF326
     Track not present in AccurateRip database
     Copy OK

Track  3

     Filename D:\Compiliation\Various Artists - Promo Only Import Club April 1998\03 - Dominion Fortunes (VOX Mix).wav

     Peak level 96.6 %
     Extraction speed 5.7 X
     Track quality 100.0 %
     Test CRC 29291E2F
     Copy CRC 29291E2F
     Track not present in AccurateRip database
     Copy OK

Track  4

     Filename D:\Compiliation\Various Artists - Promo Only Import Club April 1998\04 - Orinoko Mama Konda (Timo Maas Low Budget Remix).wav

     Peak level 96.6 %
     Extraction speed 5.5 X
     Track quality 100.0 %
     Test CRC 82AB0FE1
     Copy CRC 82AB0FE1
     Track not present in AccurateRip database
     Copy OK

Track  5

     Filename D:\Compiliation\Various Artists - Promo Only Import Club April 1998\05 - Funky Fukumi R U Ready (Original Mix).wav

     Peak level 96.6 %
     Extraction speed 3.2 X
     Track quality 100.0 %
     Test CRC 6E69CE32
     Copy CRC 6E69CE32
     Track not present in AccurateRip database
     Copy OK

Track  6

     Filename D:\Compiliation\Various Artists - Promo Only Import Club April 1998\06 - The Morphanage Your Mind (Elektro Mix).wav

     Peak level 100.0 %
     Extraction speed 7.5 X
     Track quality 100.0 %
     Test CRC E9006ECA
     Copy CRC E9006ECA
     Track not present in AccurateRip database
     Copy OK

Track  7

     Filename D:\Compiliation\Various Artists - Promo Only Import Club April 1998\07 - Soundscape Dubplate Culture (Original Mix).wav

     Peak level 98.8 %
     Extraction speed 5.5 X
     Track quality 100.0 %
     Test CRC EB2D56EA
     Copy CRC EB2D56EA
     Track not present in AccurateRip database
     Copy OK

Track  8

     Filename D:\Compiliation\Various Artists - Promo Only Import Club April 1998\08 - Andy Jarrod Storm Cycle (Main Mix).wav

     Peak level 96.6 %
     Extraction speed 3.2 X
     Track quality 99.9 %
     Test CRC 8C341172
     Copy CRC 8C341172
     Track not present in AccurateRip database
     Copy OK

Track  9

     Filename D:\Compiliation\Various Artists - Promo Only Import Club April 1998\09 - Andy Ling Anuna (Part 1).wav

     Peak level 96.6 %
     Extraction speed 4.8 X
     Track quality 100.0 %
     Test CRC 00F26254
     Copy CRC 00F26254
     Track not present in AccurateRip database
     Copy OK

None of the tracks are present in the AccurateRip database

No errors occurred

End of status report

---- CUETools DB Plugin V2.1.3

[CTDB TOCID: MkXkvoG3JO0GJiF7LbVCcDt0_ZI-] disk not present in database, Submit result: MkXkvoG3JO0GJiF7LbVCcDt0_ZI- has been uploaded

==== Log checksum 6FA58B7ACA620299A1659CF24445A3042DBAA6E4DF648031089731CD37577753 ====
Thank you very much! Spasibo!

Страница 1 из 1

new_topic  reply_topic

Текущее время: 16-Дек 06:38
Часовой пояс: GMT + 4

m Сделано с любовью PR-CY.ru Каталог webplus.info