Вход на сайт

Имя:
Пароль:

· Забыли пароль?
logo
Портал Форум
Регистрация Вход


new_topic  reply_topic

  (Pop) Various - Летний Хит! vol. 1 1997, FLAC (image + .cue), lossless

pic
Год выпуска: 1997
Страна: Россия
Производитель: RMG
Жанр: Pop
Номер #: 1047-2 (ToCo 931-985-2)
Продолжительность: 60 мин.

Тип издания: сборник
Аудио кодек: FLAC
Тип рипа: (image + .cue)
Битрейт аудио: lossless

Треклист:

01. Paradisio - Bailando (Extended Radio Version)
02. Quicksilver - Street Sales (Original)
03. DJ Bobo - It`s My Life (Album Version)
04. Boys Of New Age feat. John Springate - Wonderful Life (Club Mix)
05. Chris Wayne - Land Down Under (Original Mix)
06. Carrilio - Samba de Janeiro (7' Radio Version)
07. Double You - Somebody (Guitar Mix)
08. Alexia - Uh La La La (Cellular Mix)
09. Zapata - Un, Dos, Tres, Maria (Original Version)
10. Cartouche - Running Up That Hill (Radio Mix)
11. L.A. Work - Diamond In My Heart (Da Da Da Di Da Radio Mix)
12. Matanza - Matador (Original Radio Edit)
13. Web-Coast - Don`t Speak (Extended Mix)


Доп. информация: Чешское издание

Код:

Exact Audio Copy V1.0 beta 3 from 29. August 2011

EAC extraction logfile from 29. August 2013, 23:36

Various / Летний Хит! vol. 1

Used drive  : MATSHITADVD-RAM UJ-841S   Adapter: 2  ID: 0

Read mode               : Secure
Utilize accurate stream : Yes
Defeat audio cache      : Yes
Make use of C2 pointers : No

Read offset correction                      : 102
Overread into Lead-In and Lead-Out          : No
Fill up missing offset samples with silence : Yes
Delete leading and trailing silent blocks   : No
Null samples used in CRC calculations       : Yes
Used interface                              : Installed external ASPI interface

Used output format : Internal WAV Routines
Sample format      : 44.100 Hz; 16 Bit; Stereo

TOC of the extracted CD

     Track |   Start  |  Length  | Start sector | End sector
    ---------------------------------------------------------
        1  |  0:00.10 |  6:51.21 |        10    |    30855   
        2  |  6:51.31 |  3:36.41 |     30856    |    47096   
        3  | 10:27.72 |  4:14.24 |     47097    |    66170   
        4  | 14:42.21 |  7:06.41 |     66171    |    98161   
        5  | 21:48.62 |  4:17.08 |     98162    |   117444   
        6  | 26:05.70 |  3:26.14 |    117445    |   132908   
        7  | 29:32.09 |  5:27.33 |    132909    |   157466   
        8  | 34:59.42 |  6:07.18 |    157467    |   185009   
        9  | 41:06.60 |  4:04.13 |    185010    |   203322   
       10  | 45:10.73 |  3:37.10 |    203323    |   219607   
       11  | 48:48.08 |  3:40.18 |    219608    |   236125   
       12  | 52:28.26 |  4:02.02 |    236126    |   254277   
       13  | 56:30.28 |  4:00.01 |    254278    |   272278   

Range status and errors

Selected range

     Filename E:\stratos\Imiges\Various - Летний Хит! vol. 1\Various - Летний Хит! vol. 1.wav

     Peak level 99.0 %
     Extraction speed 1.2 X
     Range quality 99.9 %
     Test CRC 7E18A487
     Copy CRC 7E18A487
     Copy OK

No errors occurred

 
AccurateRip summary
 
Track  1  not present in database
Track  2  not present in database
Track  3  not present in database
Track  4  not present in database
Track  5  not present in database
Track  6  not present in database
Track  7  not present in database
Track  8  not present in database
Track  9  not present in database
Track 10  not present in database
Track 11  not present in database
Track 12  not present in database
Track 13  not present in database
 
None of the tracks are present in the AccurateRip database

End of status report

==== Log checksum F1EF2A2DE1DE0FB4B43CE9D490D1DC5839A8F611EBE48300049D179A80D0341F ====
Ааа.... где мои 17 лет... Ностальгия....
nostalgic

Страница 1 из 1

new_topic  reply_topic

Текущее время: 18-Янв 12:11
Часовой пояс: GMT + 4

m Сделано с любовью PR-CY.ru Каталог webplus.info