Вход на сайт

Имя:
Пароль:

· Забыли пароль?
logo
Портал Форум
Регистрация Вход


new_topic  reply_topic

  (Pop) Various - Весенний Хит! vol. 3 1998, FLAC (image + .cue), lossless

pic
Год выпуска: 1998
Страна: Россия
Производитель: RMG
Жанр: Pop
Номер #: 1070-2 (ToCo 941-384-2)
Продолжительность: 60 мин.

Тип издания: сборник
Аудио кодек: FLAC
Тип рипа: (image + .cue)
Битрейт аудио: lossless

Треклист:

01. Devorah - Paradise
02. High Jinx - California Dreaming (radio edit)
03. Bad Dadhy - I`ll Be Missing You
04. Dr. Alban - Long Time Ago
05. Sticks - Only Begun To Love U (radio mix)
06. Alana Dante - Take Me For A Ride (radio mix)
07. DJ Bobo - It`s My Life (bahio radio version)
08. M-Jam - Do Ya Thing I`m Sexy? (radio edit)
09. Encore! - Le Disk Jockey (radio edit)
10. Marcus - Wake Up (radio edit)
11. Who`s That Girl? - La Isla Bonita (7' mix)
12. T-Spoon - Message Of Love (radio mix)
13. Natalie Browne - Torn (7' mix)
14. Sequential One - Imagination (radio mix)
15. Whigfield - No Tears To Cry (original edit)
16. Men in Black - Men in Black


Доп. информация: Чешское издание

Код:

Exact Audio Copy V1.0 beta 3 from 29. August 2011

EAC extraction logfile from 30. August 2013, 10:21

Various / Весенний Хит! vol. 3

Used drive  : MATSHITADVD-RAM UJ-841S   Adapter: 2  ID: 0

Read mode               : Secure
Utilize accurate stream : Yes
Defeat audio cache      : Yes
Make use of C2 pointers : No

Read offset correction                      : 102
Overread into Lead-In and Lead-Out          : No
Fill up missing offset samples with silence : Yes
Delete leading and trailing silent blocks   : No
Null samples used in CRC calculations       : Yes
Used interface                              : Installed external ASPI interface

Used output format : Internal WAV Routines
Sample format      : 44.100 Hz; 16 Bit; Stereo

TOC of the extracted CD

     Track |   Start  |  Length  | Start sector | End sector
    ---------------------------------------------------------
        1  |  0:00.10 |  5:26.26 |        10    |    24485   
        2  |  5:26.36 |  3:21.63 |     24486    |    39623   
        3  |  8:48.24 |  5:02.40 |     39624    |    62313   
        4  | 13:50.64 |  3:29.60 |     62314    |    78048   
        5  | 17:20.49 |  3:55.48 |     78049    |    95721   
        6  | 21:16.22 |  3:27.17 |     95722    |   111263   
        7  | 24:43.39 |  3:48.25 |    111264    |   128388   
        8  | 28:31.64 |  3:27.32 |    128389    |   143945   
        9  | 31:59.21 |  3:37.02 |    143946    |   160222   
       10  | 35:36.23 |  3:57.63 |    160223    |   178060   
       11  | 39:34.11 |  4:02.54 |    178061    |   196264   
       12  | 43:36.65 |  3:30.19 |    196265    |   212033   
       13  | 47:07.09 |  3:36.00 |    212034    |   228233   
       14  | 50:43.09 |  4:00.36 |    228234    |   246269   
       15  | 54:43.45 |  3:53.14 |    246270    |   263758   
       16  | 58:36.59 |  3:42.71 |    263759    |   280479   

Range status and errors

Selected range

     Filename E:\stratos\Imiges\Various - Весенний Хит! vol. 3\Various - Весенний Хит! vol. 3.wav

     Peak level 99.0 %
     Extraction speed 2.5 X
     Range quality 100.0 %
     Test CRC EBEC292E
     Copy CRC EBEC292E
     Copy OK

No errors occurred

 
AccurateRip summary
 
Track  1  not present in database
Track  2  not present in database
Track  3  not present in database
Track  4  not present in database
Track  5  not present in database
Track  6  not present in database
Track  7  not present in database
Track  8  not present in database
Track  9  not present in database
Track 10  not present in database
Track 11  not present in database
Track 12  not present in database
Track 13  not present in database
Track 14  not present in database
Track 15  not present in database
Track 16  not present in database
 
None of the tracks are present in the AccurateRip database

End of status report

==== Log checksum 3290D41BF4193AD62735D4A97750855A2D9B91AE8612ED8493D2F264BA61124F ====

Страница 1 из 1

new_topic  reply_topic

Текущее время: 24-Янв 07:27
Часовой пояс: GMT + 4

m Сделано с любовью PR-CY.ru Каталог webplus.info