Вход на сайт

Имя:
Пароль:

· Забыли пароль?
logo
Портал Форум
Регистрация Вход


new_topic  reply_topic

  (Ragga HipHop) Inner Circle - Sweat (A La La La La Long) - 1992, FLAC (image + .cue) lossless

pic
Год выпуска: 1992
Производитель: Германия
Жанр: Ragga HipHop
Номер #: 9031-77680-2 (WEA)
Продолжительность: 0:20:52

Тип издания: сингл
Аудио кодек: FLAC
Тип рипа: (image + .cue)
Битрейт аудио: lossless

Треклист:

  1. Sweat (A La La La La Long) (Original Version)
  2. Sweat (A La La La La Long) (Sweatbox Construction)
  3. Sweat (A La La La La Long) (Circle Zone Dub Mix)
  4. Bad Boys (Original Mix)

Код:

Exact Audio Copy V0.99 prebeta 5 from 4. May 2009

Отчёт EAC об извлечении, выполненном 22. января 2014, 20:22

Inner Circle / Sweat (A La La La La Long)

Дисковод: TSSTcorpCDDVDW SH-224BB   Adapter: 3  ID: 0

Режим чтения                 : Достоверность
Использование точного потока : Да
Отключение кэша аудио        : Да
Использование указателей C2  : Нет

Коррекция смещения при чтении                     : 6
Способность читать области Lead-in и Lead-out     : Нет
Заполнение пропущенных сэмплов тишиной            : Да
Удаление блоков с тишиной в начале и конце        : Нет
При вычислениях CRC использовались нулевые сэмплы : Да
Интерфейс                                         : Встроенный Win32-интерфейс для Win NT/2000

Выходной формат : Внутренние WAV-операции
Формат сэмплов  : 44.100 Гц; 16 бит; стерео

TOC извлечённого CD

     Трек |   Старт  | Длительность | Начальный сектор | Конечный сектор
    ---------------------------------------------------------------------
       1  |  0:00.00 |    3:49.00   |           0      |      17174     
       2  |  3:49.00 |    7:56.72   |       17175      |      52946     
       3  | 11:45.72 |    5:14.63   |       52947      |      76559     
       4  | 17:00.60 |    3:51.20   |       76560      |      93904     

Характеристики диапазона извлечения и сообщения об ошибках

Выбранный диапазон

     Имя файла K:\Электронная\Inner Circle (lossless)\Inner Circle - Sweat (A La La La La Long) (1992)\Inner Circle - Sweat (A La La La La Long).wav

     Пиковый уровень 100.0 %
     Качество диапазона 100.0 %
     CRC теста 4964DC71
     CRC копии 4964DC71
     Копирование... OK

Ошибок не произошло

 
AccurateRip: сводка
 
Трек  1  точное извлечение (доверие 55)  [FC0A3822]
Трек  2  точное извлечение (доверие 53)  [51D3ADD1]
Трек  3  точное извлечение (доверие 54)  [3190AAD6]
Трек  4  точное извлечение (доверие 53)  [FFD9F0F7]
 
Все треки извлечены точно

Конец отчёта

Страница 1 из 1

new_topic  reply_topic

Текущее время: 23-Окт 15:52
Часовой пояс: GMT + 4

m Сделано с любовью PR-CY.ru Каталог webplus.info