Вход на сайт

Имя:
Пароль:

· Забыли пароль?
logo
Портал Форум
Регистрация Вход


new_topic  reply_topic

  (Pop Rock) Edo Zanki - Funken Fliegen - 1994, FLAC (image + .cue) lossless

pic
Год выпуска: 1994
Страна: Германия
Производитель: Германия
Жанр: Pop Rock
Номер #: COL 660443 2 (Columbia)
Продолжительность: 0:12:14

Тип издания: сингл
Аудио кодек: FLAC
Тип рипа: (image + .cue)
Битрейт аудио: lossless

Треклист:

  1. Funken Fliegen (Radio-Edit)
  2. Beton
  3. Funken Fliegen (Album-Version)

Код:

Exact Audio Copy V0.99 prebeta 5 from 4. May 2009

Отчёт EAC об извлечении, выполненном 13. февраля 2014, 10:55

Edo Zanki / Funken Fliegen

Дисковод: TSSTcorpCDDVDW SH-224BB   Adapter: 3  ID: 0

Режим чтения                 : Достоверность
Использование точного потока : Да
Отключение кэша аудио        : Да
Использование указателей C2  : Нет

Коррекция смещения при чтении                     : 6
Способность читать области Lead-in и Lead-out     : Нет
Заполнение пропущенных сэмплов тишиной            : Да
Удаление блоков с тишиной в начале и конце        : Нет
При вычислениях CRC использовались нулевые сэмплы : Да
Интерфейс                                         : Встроенный Win32-интерфейс для Win NT/2000

Выходной формат : Внутренние WAV-операции
Формат сэмплов  : 44.100 Гц; 16 бит; стерео

TOC извлечённого CD

     Трек |   Старт  | Длительность | Начальный сектор | Конечный сектор
    ---------------------------------------------------------------------
       1  |  0:00.00 |    3:28.00   |           0      |      15599     
       2  |  3:28.00 |    4:04.50   |       15600      |      33949     
       3  |  7:32.50 |    4:41.52   |       33950      |      55076     

Характеристики диапазона извлечения и сообщения об ошибках

Выбранный диапазон

     Имя файла M:\Разное\Edo Zanki (lossless)\Edo Zanki - Funken Fliegen (1994)\Edo Zanki - Funken Fliegen.wav

     Пиковый уровень 99.0 %
     Качество диапазона 100.0 %
     CRC теста 8A6A92C3
     CRC копии 8A6A92C3
     Копирование... OK

Ошибок не произошло

 
AccurateRip: сводка
 
Трек  1  точность не определена (достоверность 1)  [F259863E], AccurateRip вернул [54B55B24]
Трек  2  точное извлечение (доверие 1)  [829BA6B5]
Трек  3  точное извлечение (доверие 1)  [2F5A9188]
 
 2 трек(и) скопированы точно
 1 трек(и) не удалось проверить на точность

Некоторые треки не прошли проверку на точность

Конец отчёта

Страница 1 из 1

new_topic  reply_topic

Текущее время: 23-Окт 15:39
Часовой пояс: GMT + 4

m Сделано с любовью PR-CY.ru Каталог webplus.info