Вход на сайт

Имя:
Пароль:

· Забыли пароль?
logo
Портал Форум
Регистрация Вход


new_topic  reply_topic

  (Eurodance, Euro House) Maxi Eurodance Sensation Vol.21 (2CD) - 1996, FLAC (image + .cue) lossless

pic
Год выпуска: 1996
Производитель: Эстония
Жанр: Eurodance, Euro House
Номер #: KMG 80.2 (Kaljuste Music Group / ToCo International)
Продолжительность: 1:10:53 + 1:13:05

Тип издания: сборник
Аудио кодек: FLAC
Тип рипа: (image + .cue)
Битрейт аудио: lossless

Треклист:

CD1
  1. 2b Or Not 2b - 2night, 2night
  2. 2 Brothers On The 4th Floor feat. Des'Ray & D-Rock - Fairytales
  3. Harayuku - License For Lovers
  4. Messengers feat. J.Gross - Miss Sarajevo
  5. Paul Parker - Riders On The Storm
  6. Trance Opera feat. Charlae Olaker - Madam Butterfly
  7. Toolex - Fly Away
  8. Los Del Mar - Me Intranquilizas
  9. Vangogh - You Really Got me
  10. Time Zone - Imagination
  11. Dolce Vita - Clap Your Hands
  12. Gottsha - Do You Wanna Love Me
  13. 2 Unlimited - MTV Partyzone Megamix


CD2
  1. Must Q - Party Animals
  2. Waldo - It's About Time
  3. R-Vais - Bam
  4. Abigail - Don't Tell Me Why
  5. Ice Mc - Labba Ling
  6. Pleasure feat. J Cock - First Time
  7. Sisters N'Brothers - Bing Bing Boom
  8. Magic D - Wishing On The Star
  9. Rozlyne Clarke - I Wanna See You
  10. Two Culture - (He's A) Dreamer
  11. Right Said Fred - Everybody Loves Me
  12. Suns Of Shiva feat. Angie Gold - This Wheels's On Fire
  13. Viviane - Ifeel Love
  14. Doop - Ridin'
  15. Jo-Burg - Can't Stop Loving U

Доп. информация: автор компиляции Peeter Kaljuste

Код:

Exact Audio Copy V0.99 prebeta 5 from 4. May 2009

Отчёт EAC об извлечении, выполненном 2. марта 2014, 12:25

Various / Maxi Eurodance Sensation Vol.21 - CD1

Дисковод: TSSTcorpCDDVDW SH-224BB   Adapter: 3  ID: 0

Режим чтения                 : Достоверность
Использование точного потока : Да
Отключение кэша аудио        : Да
Использование указателей C2  : Нет

Коррекция смещения при чтении                     : 6
Способность читать области Lead-in и Lead-out     : Нет
Заполнение пропущенных сэмплов тишиной            : Да
Удаление блоков с тишиной в начале и конце        : Нет
При вычислениях CRC использовались нулевые сэмплы : Да
Интерфейс                                         : Встроенный Win32-интерфейс для Win NT/2000

Выходной формат : Внутренние WAV-операции
Формат сэмплов  : 44.100 Гц; 16 бит; стерео

TOC извлечённого CD

     Трек |   Старт  | Длительность | Начальный сектор | Конечный сектор
    ---------------------------------------------------------------------
       1  |  0:00.00 |    6:05.63   |           0      |      27437     
       2  |  6:05.63 |    4:42.47   |       27438      |      48634     
       3  | 10:48.35 |    5:56.16   |       48635      |      75350     
       4  | 16:44.51 |    5:38.42   |       75351      |     100742     
       5  | 22:23.18 |    6:39.69   |      100743      |     130736     
       6  | 29:03.12 |    6:28.57   |      130737      |     159893     
       7  | 35:31.69 |    4:36.07   |      159894      |     180600     
       8  | 40:08.01 |    6:10.50   |      180601      |     208400     
       9  | 46:18.51 |    5:04.45   |      208401      |     231245     
      10  | 51:23.21 |    4:43.47   |      231246      |     252517     
      11  | 56:06.68 |    5:08.70   |      252518      |     275687     
      12  | 61:15.63 |    4:40.30   |      275688      |     296717     
      13  | 65:56.18 |    4:56.57   |      296718      |     318974     

Характеристики диапазона извлечения и сообщения об ошибках

Выбранный диапазон

     Имя файла K:\Зарубежные сборники\Maxi Eurodance Sensation Vol.21 (1996)\CD1\Maxi Eurodance Sensation Vol.21 - CD1.wav

     Пиковый уровень 100.0 %
     Качество диапазона 100.0 %
     CRC теста 74BE2159
     CRC копии 74BE2159
     Копирование... OK

Ошибок не произошло

 
AccurateRip: сводка
 
Трек  1  точное извлечение (доверие 1)  [75747754]
Трек  2  точное извлечение (доверие 1)  [AFE8DF1B]
Трек  3  точное извлечение (доверие 1)  [920D786C]
Трек  4  точное извлечение (доверие 1)  [B621FB82]
Трек  5  точное извлечение (доверие 1)  [5409A7DF]
Трек  6  точное извлечение (доверие 1)  [2CB2E878]
Трек  7  точное извлечение (доверие 1)  [922499F2]
Трек  8  точное извлечение (доверие 1)  [DEFC7AAC]
Трек  9  точное извлечение (доверие 1)  [C8B8C106]
Трек 10  точное извлечение (доверие 1)  [F0CF663C]
Трек 11  точное извлечение (доверие 1)  [CCD6349B]
Трек 12  точное извлечение (доверие 1)  [B9D1396C]
Трек 13  точное извлечение (доверие 1)  [209264FF]
 
Все треки извлечены точно

Конец отчёта

Код:

Exact Audio Copy V0.99 prebeta 5 from 4. May 2009

Отчёт EAC об извлечении, выполненном 2. марта 2014, 13:36

Various / Maxi Eurodance Sensation Vol.21 - CD2

Дисковод: TSSTcorpCDDVDW SH-S223B   Adapter: 4  ID: 2

Режим чтения                 : Достоверность
Использование точного потока : Да
Отключение кэша аудио        : Да
Использование указателей C2  : Нет

Коррекция смещения при чтении                     : 6
Способность читать области Lead-in и Lead-out     : Нет
Заполнение пропущенных сэмплов тишиной            : Да
Удаление блоков с тишиной в начале и конце        : Нет
При вычислениях CRC использовались нулевые сэмплы : Да
Интерфейс                                         : Встроенный Win32-интерфейс для Win NT/2000

Выходной формат : Внутренние WAV-операции
Формат сэмплов  : 44.100 Гц; 16 бит; стерео

TOC извлечённого CD

     Трек |   Старт  | Длительность | Начальный сектор | Конечный сектор
    ---------------------------------------------------------------------
       1  |  0:00.00 |    3:40.67   |           0      |      16566     
       2  |  3:40.67 |    4:34.24   |       16567      |      37140     
       3  |  8:15.16 |    4:36.59   |       37141      |      57899     
       4  | 12:52.00 |    4:52.29   |       57900      |      79828     
       5  | 17:44.29 |    5:56.03   |       79829      |     106531     
       6  | 23:40.32 |    5:38.67   |      106532      |     131948     
       7  | 29:19.24 |    5:04.21   |      131949      |     154769     
       8  | 34:23.45 |    4:39.32   |      154770      |     175726     
       9  | 39:03.02 |    4:16.35   |      175727      |     194961     
      10  | 43:19.37 |    3:39.47   |      194962      |     211433     
      11  | 46:59.09 |    6:38.74   |      211434      |     241357     
      12  | 53:38.08 |    6:43.17   |      241358      |     271599     
      13  | 60:21.25 |    4:03.65   |      271600      |     289889     
      14  | 64:25.15 |    5:11.37   |      289890      |     313251     
      15  | 69:36.52 |    3:28.29   |      313252      |     328880     

Характеристики диапазона извлечения и сообщения об ошибках

Выбранный диапазон

     Имя файла K:\Зарубежные сборники\Maxi Eurodance Sensation Vol.21 (1996)\CD2\Maxi Eurodance Sensation Vol.21 - CD2.wav

     Пиковый уровень 100.0 %
     Качество диапазона 100.0 %
     CRC теста 5490D215
     CRC копии 5490D215
     Копирование... OK

Ошибок не произошло

 
AccurateRip: сводка
 
Трек  1  точное извлечение (доверие 1)  [3297F471]
Трек  2  точное извлечение (доверие 1)  [F57BCEC9]
Трек  3  точное извлечение (доверие 1)  [21BCCD54]
Трек  4  точное извлечение (доверие 1)  [EB99537F]
Трек  5  точное извлечение (доверие 1)  [FA3CCC74]
Трек  6  точное извлечение (доверие 1)  [515A5378]
Трек  7  точное извлечение (доверие 1)  [57551628]
Трек  8  точное извлечение (доверие 1)  [65DD2D9D]
Трек  9  точное извлечение (доверие 1)  [CD24633A]
Трек 10  точное извлечение (доверие 1)  [87880CF8]
Трек 11  точное извлечение (доверие 1)  [8FD8BDEA]
Трек 12  точное извлечение (доверие 1)  [F9374D6F]
Трек 13  точное извлечение (доверие 1)  [8378F363]
Трек 14  точное извлечение (доверие 1)  [854A7F11]
Трек 15  точное извлечение (доверие 1)  [35E16820]
 
Все треки извлечены точно

Конец отчёта
very good

Страница 1 из 1

new_topic  reply_topic

Текущее время: 29-Ноя 17:58
Часовой пояс: GMT + 4

m Сделано с любовью PR-CY.ru Каталог webplus.info