Вход на сайт

Имя:
Пароль:

· Забыли пароль?
logo
Портал Форум
Регистрация Вход


new_topic  reply_topic

  (Eurodance) MASTERBOY - Generation Of Love - The Album (Album) 1995, FLAC tracks, lossless

pic
Год выпуска: 1995
Производитель: ?
Жанр: Eurodance
Лэйбл - Номер по каталогу: PolyGram - 527 998-2
Продолжительность: 00:54:16

Тип издания: альбом
Аудио кодек: FLAC
Тип рипа: tracks
Битрейт аудио: lossless

Barcode: 7 31452 79982 1
Distribution Code: PY 833
Matrix Code: GENERATION OF LOVE SMA 13878

Треклист:

1. Intro (2:50)
2. Give Me Your Love (4:12)
3. Anybody (Movin' On) (3:53)
4. Baby Let It Be (4:05)
5. Land Of Dreaming (4:03)
6. Masterboy Theme (The Third) (6:06)
7. Generation Of Love (3:40)
8. Feel The Fire (4:25)
9. Get It On (5:21)
10. Feel The Force (House Version) (5:21)

Bonus Tracks:

11. Generation Of Love (Fly Away Remix) (6:03)
12. Anybody (Movin' On) (F.J. Gauder Remix) (5:55)

Доп. информация: В раздачу добавлены отсканированные обложки, диск и матрица диска в 600 dpi.png.

Код:

Exact Audio Copy V1.0 beta 3 from 29. August 2011

Отчёт EAC об извлечении, выполненном 14. ноября 2013, 11:54

MASTERBOY / Generation Of Love - The Album

Дисковод: ASUS    DRW-2014L1T   Adapter: 4  ID: 0

Режим чтения                 : Достоверность
Использование точного потока : Да
Отключение кэша аудио        : Да
Использование указателей C2  : Нет

Коррекция смещения при чтении                     : 6
Способность читать области Lead-in и Lead-out     : Нет
Заполнение пропущенных сэмплов тишиной            : Да
Удаление блоков с тишиной в начале и конце        : Нет
При вычислениях CRC использовались нулевые сэмплы : Да
Интерфейс                                         : Встроенный Win32-интерфейс для Win NT/2000
Обработка зазоров                                 : Добавлено к предыдущему треку

Выходной формат          : Пользовательский кодировщик
Выбранный битрейт        : 1024 kBit/s
Качество                 : Высокий
Добавление ID3-тега      : Нет
Утилита сжатия           : C:\Program Files\Exact Audio Copy\FLAC\FLAC.EXE
Дополнительные параметры : -6 -V -T "ARTIST=%artist%" -T "TITLE=%title%" -T "ALBUM=%albumtitle%" -T "DATE=%year%" -T "TRACKNUMBER=%tracknr%" -T "GENRE=%genre%" -T "COMMENT=%comment%" -T "BAND=%albuminterpret%" -T "ALBUMARTIST=%albuminterpret%" -T "COMPOSER=%composer%" %haslyrics%--tag-from-file=LYRICS="%lyricsfile%"%haslyrics% -T "DISCNUMBER=%cdnumber%" -T "TOTALDISCS=%totalcds%" -T "TOTALTRACKS=%numtracks%" %hascover%--picture="%coverfile%"%hascover% %source% -o %dest%

TOC извлечённого CD

     Трек |   Старт  | Длительность | Начальный сектор | Конечный сектор
    ---------------------------------------------------------------------
       1  |  0:00.00 |    2:51.52   |           0      |      12876     
       2  |  2:51.52 |    4:12.33   |       12877      |      31809     
       3  |  7:04.10 |    3:53.50   |       31810      |      49334     
       4  | 10:57.60 |    4:06.12   |       49335      |      67796     
       5  | 15:03.72 |    4:02.28   |       67797      |      85974     
       6  | 19:06.25 |    6:06.60   |       85975      |     113484     
       7  | 25:13.10 |    3:40.20   |      113485      |     130004     
       8  | 28:53.30 |    4:23.35   |      130005      |     149764     
       9  | 33:16.65 |    3:38.57   |      149765      |     166171     
      10  | 36:55.47 |    5:21.45   |      166172      |     190291     
      11  | 42:17.17 |    6:03.30   |      190292      |     217546     
      12  | 48:20.47 |    5:56.35   |      217547      |     244281     

Трек  1

     Имя файла E:\This EAC has made Federal\MASTERBOY - 1 - Intro.wav

     Длина предзазора  0:00:02.00

     Пиковый уровень 100.0 %
     Скорость извлечения 4.9 X
     Качество трека 100.0 %
     CRC теста AF923D3B
     CRC копии AF923D3B
     Трек не обнаружен в базе AccurateRip
     Копирование... OK

Трек  2

     Имя файла E:\This EAC has made Federal\MASTERBOY - 2 - Give Me Your Love.wav

     Пиковый уровень 100.0 %
     Скорость извлечения 5.7 X
     Качество трека 100.0 %
     CRC теста 3D504D9D
     CRC копии 3D504D9D
     Трек не обнаружен в базе AccurateRip
     Копирование... OK

Трек  3

     Имя файла E:\This EAC has made Federal\MASTERBOY - 3 - Anbody (Movin' On).wav

     Длина предзазора  0:00:00.65

     Пиковый уровень 99.9 %
     Скорость извлечения 6.1 X
     Качество трека 100.0 %
     CRC теста E456D1A0
     CRC копии E456D1A0
     Трек не обнаружен в базе AccurateRip
     Копирование... OK

Трек  4

     Имя файла E:\This EAC has made Federal\MASTERBOY - 4 - Baby Let It Be.wav

     Длина предзазора  0:00:00.58

     Пиковый уровень 100.0 %
     Скорость извлечения 6.6 X
     Качество трека 100.0 %
     CRC теста B3350E39
     CRC копии B3350E39
     Трек не обнаружен в базе AccurateRip
     Копирование... OK

Трек  5

     Имя файла E:\This EAC has made Federal\MASTERBOY - 5 - Land Of Dreaming.wav

     Длина предзазора  0:00:00.37

     Пиковый уровень 100.0 %
     Скорость извлечения 5.3 X
     Качество трека 99.9 %
     CRC теста 056619D8
     CRC копии 056619D8
     Трек не обнаружен в базе AccurateRip
     Копирование... OK

Трек  6

     Имя файла E:\This EAC has made Federal\MASTERBOY - 6 - Masterboy Theme (The Third).wav

     Длина предзазора  0:00:00.13

     Пиковый уровень 100.0 %
     Скорость извлечения 7.9 X
     Качество трека 100.0 %
     CRC теста F43EF90A
     CRC копии F43EF90A
     Трек не обнаружен в базе AccurateRip
     Копирование... OK

Трек  7

     Имя файла E:\This EAC has made Federal\MASTERBOY - 7 - Generation Of Love.wav

     Длина предзазора  0:00:00.23

     Пиковый уровень 100.0 %
     Скорость извлечения 7.9 X
     Качество трека 100.0 %
     CRC теста 905E53E7
     CRC копии 905E53E7
     Трек не обнаружен в базе AccurateRip
     Копирование... OK

Трек  8

     Имя файла E:\This EAC has made Federal\MASTERBOY - 8 - Feel The Fire.wav

     Длина предзазора  0:00:00.43

     Пиковый уровень 100.0 %
     Скорость извлечения 8.5 X
     Качество трека 100.0 %
     CRC теста 2EA61C0E
     CRC копии 2EA61C0E
     Трек не обнаружен в базе AccurateRip
     Копирование... OK

Трек  9

     Имя файла E:\This EAC has made Federal\MASTERBOY - 9 - Get In On.wav

     Длина предзазора  0:00:00.05

     Пиковый уровень 100.0 %
     Скорость извлечения 6.3 X
     Качество трека 99.9 %
     CRC теста 7F1D7DE1
     CRC копии 7F1D7DE1
     Трек не обнаружен в базе AccurateRip
     Копирование... OK

Трек 10

     Имя файла E:\This EAC has made Federal\MASTERBOY - 10 - Feel The Force (House Version).wav

     Длина предзазора  0:00:00.42

     Пиковый уровень 100.0 %
     Скорость извлечения 9.3 X
     Качество трека 100.0 %
     CRC теста 52E3229A
     CRC копии 52E3229A
     Трек не обнаружен в базе AccurateRip
     Копирование... OK

Трек 11

     Имя файла E:\This EAC has made Federal\MASTERBOY - 11 - Generation Of Love (Fly Away Remix).wav

     Длина предзазора  0:00:00.37

     Пиковый уровень 100.0 %
     Скорость извлечения 10.0 X
     Качество трека 100.0 %
     CRC теста C0AAB2AE
     CRC копии C0AAB2AE
     Трек не обнаружен в базе AccurateRip
     Копирование... OK

Трек 12

     Имя файла E:\This EAC has made Federal\MASTERBOY - 12 - Anybody (Movin' On) (F.J. Gauder Remix).wav

     Длина предзазора  0:00:00.10

     Пиковый уровень 100.0 %
     Скорость извлечения 10.2 X
     Качество трека 100.0 %
     CRC теста A6CAC1CA
     CRC копии A6CAC1CA
     Трек не обнаружен в базе AccurateRip
     Копирование... OK

Ни одного трека нет в базе AccurateRip

Ошибок не произошло

Конец отчёта

==== Контрольная сумма отчёта 95550F5891C69DD1B6D8368555B0B48E549B220CAFE76D351D5B2E18EB924D40 ====
MASTERBOY - Dance To The Beat (Single) 1990
MASTERBOY - Dance To The Beat (Remix) 1990
MASTERBOY - Cause We Do It Again (Single) 1991
MASTERBOY Feat. MENDY LEE & M.C. A.T.B. - I Need Your Love (Single) 1991
MASTERBOY Feat. MENDY LEE & M.C. A.T.B. - I Need Your Love (Single) 1991
MASTERBOY - Masterboy Theme (Vinyl, 12'') 1991
MASTERBOY - Shake It Up And Dance (Single) 1991
MASTERBOY - Shake It Up And Dance (Remix) 1991
MASTERBOY - The Masterboy Family 1991
MASTERBOY - Keep On Dancing (Single) 1992
MASTERBOY - Noche Del Amor (Single) 1992
MASTERBOY - Everybody Needs Somebody (Single) 1993
MASTERBOY - Everybody Needs Somebody (Remix) 1993
MASTERBOY - Fall In Trance (Single) 1993
MASTERBOY - Fall In Trance (Remix) 1993
MASTERBOY - Feeling Alright 1993
MASTERBOY - Different Dreams 1994
MASTERBOY - Different Dreams (Album, Promo, Cardboard Sleeve) 1994
MASTERBOY - Feel The Heat Of The Night (Single) 1994
MASTERBOY - Feel The Heat Of The Night (Single, Cardboard Sleeve) 1994
MASTERBOY - Feel The Heat Of The Night (Remixes) 1994
MASTERBOY - Feel The Heat Of The Night (Re-Re-Mix) 1994
MASTERBOY - I Got To Give It Up (Single) 1994
MASTERBOY - I Got To Give It Up (Remixes) 1994
MASTERBOY - Is This The Love (Single) 1994
MASTERBOY - Is This The Love (Single, Cardboard Sleeve) 1994
MASTERBOY - Is This The Love (Remix) 1994
MASTERBOY - Anybody (UK Single) 1995
MASTERBOY - Anybody (Movin' On) (Single) 1995
MASTERBOY - Anybody (Movin' On) (Single, Cardboard Sleeve) 1995
MASTERBOY - Anybody (Movin' On) (The Remixes) 1995
MASTERBOY - Different Dreams 25.08.1995
MASTERBOY - Different Dreams (Single, Cardboard Sleeve) 1995
MASTERBOY - Generation Of Love (Single) 1995
MASTERBOY - Generation Of Love (Single, Limited Edition) 1995
MASTERBOY - Generation Of Love (Remix) 1995
MASTERBOY - Generation Of Love (The Album) 1995
MASTERBOY - Generation Of Love - The Album 1995
MASTERBOY - Megamix (Single, Cardboard Sleeve) 1995
MASTERBOY - Colours 1996
MASTERBOY - Land Of Dreaming (Single) 1996
MASTERBOY - Land Of Dreaming (Remixes) 1996
MASTERBOY - Land Of Dreaming (Remixes) 1996
MASTERBOY - Land Of Dreaming (Remixes, Cardboard Sleeve) 1996
MASTERBOY - Mister Feeling (Single) 1996
MASTERBOY - Mister Feeling (The Remixes) 1996
MASTERBOY - Show Me Colours (Single) 1996
MASTERBOY - Show Me Colours (The Remixes) 1996
MASTERBOY - Just For You (Single) 1997
MASTERBOY - La Ola (Hand In Hand) (Single) 1997
MASTERBOY - Dancin' Forever (Single) 1998
MASTERBOY - Dancin' Forever (Remixes) (Vinyl, 12'') 1998
MASTERBOY - Porque Te Vas (Single) 1999
MASTERBOY - Best Of 2000
MASTERBOY - Best Of (2 CD Digipack) 2000
MASTERBOY - Feel The Heat 2000 (Single) 2000
MASTERBOY - I Like To Like It (Single) 2000
MASTERBOY - Ride Like The Wind 2001
MASTERBOY - The Heat Of The Night 2001
MASTERBOY - I Need A Lover Tonight (Single) 2002
MASTERBOY - Feel The Heat Of The Night 2003 (Single) 2003
MASTERBOY - Feel The Heat Of The Night 2003 (Mini) 2003
MASTERBOY - The Best 2006

Страница 1 из 1

new_topic  reply_topic

Текущее время: 23-Окт 14:31
Часовой пояс: GMT + 4

m Сделано с любовью PR-CY.ru Каталог webplus.info