Вход на сайт

Имя:
Пароль:

· Забыли пароль?
logo
Портал Форум
Регистрация Вход


new_topic  reply_topic

  (Euro House, Eurodance) Autohit 5 - 1997, FLAC (image + .cue)

pic
Год выпуска: 1997
Производитель: Эстония
Жанр: Euro House, Eurodance, Pop
Номер #: PR 113.2 (Pyramids Records)
Продолжительность: 1:10:28

Тип издания: сборник
Аудио кодек: FLAC
Тип рипа: (image + .cue)
Битрейт аудио: lossless

Треклист:

  1. Alexia - Number one (club short mix)
  2. Tigra - In the name of love (mabra mix)
  3. DJ Bobo - Respect yourself (B+B remix)
  4. The Course - Ready or not (radio mix)
  5. Imperio - Return to paradise (video mix)
  6. Alana Dante - They say it's gonna rain
  7. Secchi Presents Oscar - Children / Voyage
  8. Down Low - Murder (radio mix)
  9. Blizzard - Whithout You
  10. 2 Brothers on the 4th floor feat. Des'ray, D-Rock - There's a key (r&b radio remix)
  11. Princess Paragon - Stupid girl (radio version)
  12. Caught in the Act - Don't look for love
  13. Booby Trap - Seven day's and one week
  14. Jamie Lee - Wherever you go (dezign radio mix)
  15. T-Spoon - Fly away
  16. Whigfield - Gimme Gimme (Original vox gut)
  17. Erasure - In my arms

Код:

Exact Audio Copy V0.99 prebeta 5 from 4. May 2009

Отчёт EAC об извлечении, выполненном 9. апреля 2014, 19:56

Various / Autohit 5

Дисковод: TSSTcorpCDDVDW SH-S223B   Adapter: 4  ID: 2

Режим чтения                 : Достоверность
Использование точного потока : Да
Отключение кэша аудио        : Да
Использование указателей C2  : Нет

Коррекция смещения при чтении                     : 6
Способность читать области Lead-in и Lead-out     : Нет
Заполнение пропущенных сэмплов тишиной            : Да
Удаление блоков с тишиной в начале и конце        : Нет
При вычислениях CRC использовались нулевые сэмплы : Да
Интерфейс                                         : Встроенный Win32-интерфейс для Win NT/2000

Выходной формат : Внутренние WAV-операции
Формат сэмплов  : 44.100 Гц; 16 бит; стерео

TOC извлечённого CD

     Трек |   Старт  | Длительность | Начальный сектор | Конечный сектор
    ---------------------------------------------------------------------
       1  |  0:00.00 |    3:46.25   |           0      |      16974     
       2  |  3:46.25 |    5:42.68   |       16975      |      42692     
       3  |  9:29.18 |    4:51.27   |       42693      |      64544     
       4  | 14:20.45 |    3:29.02   |       64545      |      80221     
       5  | 17:49.47 |    4:05.57   |       80222      |      98653     
       6  | 21:55.29 |    3:58.62   |       98654      |     116565     
       7  | 25:54.16 |    4:52.61   |      116566      |     138526     
       8  | 30:47.02 |    4:04.07   |      138527      |     156833     
       9  | 34:51.09 |    4:18.04   |      156834      |     176187     
      10  | 39:09.13 |    3:37.20   |      176188      |     192482     
      11  | 42:46.33 |    4:19.02   |      192483      |     211909     
      12  | 47:05.35 |    3:07.18   |      211910      |     225952     
      13  | 50:12.53 |    4:35.04   |      225953      |     246581     
      14  | 54:47.57 |    3:57.09   |      246582      |     264365     
      15  | 58:44.66 |    4:07.37   |      264366      |     282927     
      16  | 62:52.28 |    4:06.74   |      282928      |     301451     
      17  | 66:59.27 |    3:29.00   |      301452      |     317126     

Характеристики диапазона извлечения и сообщения об ошибках

Выбранный диапазон

     Имя файла M:\Эстонская музыка\Сборники\Autohit 5\Autohit 5.wav

     Пиковый уровень 100.0 %
     Качество диапазона 100.0 %
     CRC теста 1E90C15F
     CRC копии 1E90C15F
     Копирование... OK

Ошибок не произошло

 
AccurateRip: сводка
 
Трек  1  нет в базе данных
Трек  2  нет в базе данных
Трек  3  нет в базе данных
Трек  4  нет в базе данных
Трек  5  нет в базе данных
Трек  6  нет в базе данных
Трек  7  нет в базе данных
Трек  8  нет в базе данных
Трек  9  нет в базе данных
Трек 10  нет в базе данных
Трек 11  нет в базе данных
Трек 12  нет в базе данных
Трек 13  нет в базе данных
Трек 14  нет в базе данных
Трек 15  нет в базе данных
Трек 16  нет в базе данных
Трек 17  нет в базе данных
 
Ни одного трека нет в базе AccurateRip

Конец отчёта
nice work, dimassamid

Страница 1 из 1

new_topic  reply_topic

Текущее время: 24-Янв 07:37
Часовой пояс: GMT + 4

m Сделано с любовью PR-CY.ru Каталог webplus.info