Вход на сайт

Имя:
Пароль:

· Забыли пароль?
logo
Портал Форум
Регистрация Вход


new_topic  reply_topic

  (Italo-Disco, Hi NRG) Etolie Vipe - That's How It's Done - 2014, FLAC (image + .cue) lossless

pic
Год выпуска: 2014
Страна: Россия
Производитель: Россия
Жанр: Italo-Disco, Hi NRG, SpaceSynth
Номер #: SP 0019 (SP records)
Продолжительность: 0:42:50

Тип контента: альбом
Аудио кодек: FLAC
Тип рипа: (image + .cue)
Битрейт аудио: lossless

Треклист:

  1. Cheats For A Glory
  2. Better That You
  3. Slave Of The System
  4. Shame On You
  5. The Copper Age
  6. I'm Not Liar
  7. Time And Space

Код:

Exact Audio Copy V0.99 prebeta 5 from 4. May 2009

Отчёт EAC об извлечении, выполненном 30. июня 2014, 1:44

Etolie Vipe / That's How It's Done

Дисковод: TSSTcorpCDDVDW SH-S223B   Adapter: 4  ID: 2

Режим чтения                 : Достоверность
Использование точного потока : Да
Отключение кэша аудио        : Да
Использование указателей C2  : Нет

Коррекция смещения при чтении                     : 6
Способность читать области Lead-in и Lead-out     : Нет
Заполнение пропущенных сэмплов тишиной            : Да
Удаление блоков с тишиной в начале и конце        : Нет
При вычислениях CRC использовались нулевые сэмплы : Да
Интерфейс                                         : Встроенный Win32-интерфейс для Win NT/2000

Выходной формат : Внутренние WAV-операции
Формат сэмплов  : 44.100 Гц; 16 бит; стерео

TOC извлечённого CD

     Трек |   Старт  | Длительность | Начальный сектор | Конечный сектор
    ---------------------------------------------------------------------
       1  |  0:00.00 |    7:29.56   |           0      |      33730     
       2  |  7:29.56 |    6:28.20   |       33731      |      62850     
       3  | 13:58.01 |    5:39.16   |       62851      |      88291     
       4  | 19:37.17 |    6:24.50   |       88292      |     117141     
       5  | 26:01.67 |    5:05.10   |      117142      |     140026     
       6  | 31:07.02 |    5:53.32   |      140027      |     166533     
       7  | 37:00.34 |    5:50.20   |      166534      |     192803     

Характеристики диапазона извлечения и сообщения об ошибках

Выбранный диапазон

     Имя файла M:\Italo-Disco\Etolie Vipe (lossless)\Etolie Vipe - That's How It's Done (2014)\Etolie Vipe - That's How It's Done.wav

     Пиковый уровень 100.0 %
     Качество диапазона 100.0 %
     CRC теста 2666F98E
     CRC копии 2666F98E
     Копирование... OK

Ошибок не произошло

 
AccurateRip: сводка
 
Трек  1  нет в базе данных
Трек  2  нет в базе данных
Трек  3  нет в базе данных
Трек  4  нет в базе данных
Трек  5  нет в базе данных
Трек  6  нет в базе данных
Трек  7  нет в базе данных
 
Ни одного трека нет в базе AccurateRip

Конец отчёта
Спасибо за качественную музыку. Много приходится в дороге слушать. Мой пионер прокачивал, а слух наслаждался. Альбом на 5+
Отличный альбом!
Нет, просто забойный
Если б нее голос, был бы 100%ый класс. А так это просто ужас, противный голос. Вам что действительно нравится???
Музыка супер!

blackride писал(а):

Если б нее голос, был бы 100%ый класс. А так это просто ужас, противный голос. Вам что действительно нравится???
Музыка супер!
Кому-то и Шура без зубов нравился, как пел.
Композитор и аранжировщик группы Виктор Плотников выпустил в прошлом году инструментальный альбом. Если вам нравится именно музыка, то этот альбом для вас:
http://spacesynth.ru/forum/viewtopic.php?f=174&t=692
Доступно также на странице VK:
https://vk.com/wall53918824_4395

dimassamid писал(а):

Композитор и аранжировщик группы Виктор Плотников выпустил в прошлом году инструментальный альбом. Если вам нравится именно музыка, то этот альбом для вас:
Хах, обрадовался увидеть инструменталку с этого альбома, а там другое.
Единственно стоящая вещь Mighty Ducks from Outer Space, остальное жалкое неудавшееся породие на laserdance. Я не против музыки в таком копипасте, но звуки семплов ... в общем не стоит дальше говорить. В данном треке есть неудачный момент, но в целом трек хорош.
Кстати, таких неудачных пародий много кто выпустил.

dimka007 писал(а):

Кому-то и Шура без зубов нравился, как пел.
Мне как Шура пел не очень то нравилось, но голос его не противный в отличие от ...
Включаешь трек вступление, добавляешь громкость, начинает выть эта мадам, убавляешь громкость и так далее.
Ничего не имею против нее как человека, но пение это нее ее конек.
Это критика. На нее надо реагировать спокойно, если авторы сего чуда захотят покидаться помидорами.
Насчет вокала - многогранная темка! Я тоже больше склонен слухать музыку без оного. Но как вырезать голос из понравившегося трека - вот в чем вопрос...

Страница 1 из 1

new_topic  reply_topic

Текущее время: 23-Янв 15:27
Часовой пояс: GMT + 4

m Сделано с любовью PR-CY.ru Каталог webplus.info