Вход на сайт

Имя:
Пароль:

· Забыли пароль?
logo
Портал Форум
Регистрация Вход


new_topic  reply_topic

  (Ballads) Various Artists - Diaforoi Gold Ballad' s 1995, APE (image + .cue), lossless

pic
Год выпуска: 1995
Производитель: Греция
Жанр: Ballads
Номер #: BSW 483659-2 ( Fablesound )
Продолжительность: CD 1 01:14:36 CD 2 01:14:59

Тип издания: сборник
Аудио кодек: APE
Тип рипа: (image + .cue)
Битрейт аудио: lossless

Треклист:

CD 1

01. Take That - Back For Good
02. The Connell' s - 74-75
03. Richard Marx - Right Here Waiting
04. Bruce Springsteen - Street' s Of Philadelphia
05. Celine Dion - Think Twice
06. Peter Cetera With Crystal Bernard - Forever Tonight
07. Regina Belle - Baby Come To Me
08. Janet Jackson - Again
09. Tina Turner - I Don' t Wan' t To Lose You
10. Annie Lennox - No More I Love You' s
11. Phil Collins - Do You Remember
12. Robert Palmer - Know By Now
13. Toni Braxton - Breathe Again
14. Joshua Kadison - Beautiful In My Eye' s
15. Scarlet - Independent Love Song
16. Guns N' Roses - November Rain

CD 2

01. Michael Jackson - Heal The World
02. Mariah Carey - Hero
03. Rod Stewart - Have I Told You Lately
04. Rednex - Wish You Were Here
05. Hootie & The Blowfish - Let Her Cry
06. Seal - Kiss From A Rose
07. Alphaville - Forever Young
08. Dusty Springfield & Daryl Hall - Wherever Would I Be
09. Cock Robin - The Promise You Made
10. Randy Crawford - Holding Back The Year' s
11. Portrait - How Deep Is You' r Love
12. Mike & The Mechanics - Over My Shoulder
13. Toto - 2 Heart' s
14. Crash Test Dummies - Mmm, Mmm, Mmm, Mmm
15. Sophie B. Hawkins - As I Lay Me Down
16. Blessid Union Of Soul' s - I Believe
17. Bette Midler - The Rose
18. Reo Speedwagon - Keep On Loving You

Доп. информация: Помогите найти инфу по этому сборнику. Везде только один CD есть, у меня 2 почему то. Зелёным поставьте пожалуйста.

Код:

Exact Audio Copy V0.99 prebeta 5 from 4. May 2009

Отчёт EAC об извлечении, выполненном 6. ноября 2010, 12:30

Diaforoi / Gold Ballads

Дисковод: Optiarc DVD RW AD-7263S   Adapter: 2  ID: 0

Режим чтения                 : Достоверность
Использование точного потока : Да
Отключение кэша аудио        : Да
Использование указателей C2  : Нет

Коррекция смещения при чтении                     : 48
Способность читать области Lead-in и Lead-out     : Нет
Заполнение пропущенных сэмплов тишиной            : Да
Удаление блоков с тишиной в начале и конце        : Нет
При вычислениях CRC использовались нулевые сэмплы : Да
Интерфейс                                         : Установленный внешний ASPI-интерфейс

Выходной формат          : Monkey's Audio (без потерь)
Выбранный битрейт        : Extra High Lossless Compression
Качество                 : Высокий
Добавление ID3-тэга      : Нет
Утилита сжатия           : E:\Program Files\Monkey's Audio\MAC.exe
Дополнительные параметры : -w "Artist=%a" -w "Title=%t" -w "Album=%g" -w "Year=%y" -w "Track=%n" -w "Genre=%m" -h %s %d

TOC извлечённого CD

     Трек |   Старт  | Длительность | Начальный сектор | Конечный сектор
    ---------------------------------------------------------------------
       1  |  0:00.00 |    4:00.00   |           0      |      17999     
       2  |  4:00.00 |    4:34.00   |       18000      |      38549     
       3  |  8:34.00 |    4:22.00   |       38550      |      58199     
       4  | 12:56.00 |    3:44.00   |       58200      |      74999     
       5  | 16:40.00 |    4:42.00   |       75000      |      96149     
       6  | 21:22.00 |    4:35.00   |       96150      |     116774     
       7  | 25:57.00 |    5:39.00   |      116775      |     142199     
       8  | 31:36.00 |    3:48.00   |      142200      |     159299     
       9  | 35:24.00 |    4:15.00   |      159300      |     178424     
      10  | 39:39.00 |    4:51.00   |      178425      |     200249     
      11  | 44:30.00 |    4:37.00   |      200250      |     221024     
      12  | 49:07.00 |    4:10.00   |      221025      |     239774     
      13  | 53:17.00 |    4:30.00   |      239775      |     260024     
      14  | 57:47.00 |    4:08.00   |      260025      |     278624     
      15  | 61:55.00 |    3:47.00   |      278625      |     295649     
      16  | 65:42.00 |    8:55.00   |      295650      |     335774     

Характеристики диапазона извлечения и сообщения об ошибках

Выбранный диапазон

     Имя файла D:\Bit Torrent 2\Новая папка\Diaforoi - Gold Ballads.wav

     Пиковый уровень 100.0 %
     Качество диапазона 99.9 %
     CRC копии 35BED8FE
     Копирование... OK

Ошибок не произошло

 
AccurateRip: сводка
 
Трек  1  нет в базе данных
Трек  2  нет в базе данных
Трек  3  нет в базе данных
Трек  4  нет в базе данных
Трек  5  нет в базе данных
Трек  6  нет в базе данных
Трек  7  нет в базе данных
Трек  8  нет в базе данных
Трек  9  нет в базе данных
Трек 10  нет в базе данных
Трек 11  нет в базе данных
Трек 12  нет в базе данных
Трек 13  нет в базе данных
Трек 14  нет в базе данных
Трек 15  нет в базе данных
Трек 16  нет в базе данных
 
Ни одного трека нет в базе AccurateRip

Конец отчёта

Код:

Exact Audio Copy V0.99 prebeta 5 from 4. May 2009

Отчёт EAC об извлечении, выполненном 5. мая 2013, 8:50

Diaforoi / Gold Ballads

Дисковод: Optiarc DVD RW AD-7263S   Adapter: 5  ID: 0

Режим чтения                 : Достоверность
Использование точного потока : Да
Отключение кэша аудио        : Да
Использование указателей C2  : Нет

Коррекция смещения при чтении                     : 48
Способность читать области Lead-in и Lead-out     : Нет
Заполнение пропущенных сэмплов тишиной            : Да
Удаление блоков с тишиной в начале и конце        : Нет
При вычислениях CRC использовались нулевые сэмплы : Да
Интерфейс                                         : Встроенный Win32-интерфейс для Win NT/2000

Выходной формат          : Monkey's Audio (без потерь)
Выбранный битрейт        : Extra High Lossless Compression
Качество                 : Высокий
Добавление ID3-тэга      : Нет
Утилита сжатия           : C:\Program Files (x86)\Monkey's Audio\MAC.exe
Дополнительные параметры : -w "Artist=%a" -w "Title=%t" -w "Album=%g" -w "Year=%y" -w "Track=%n" -w "Genre=%m" -h %s %d

TOC извлечённого CD

     Трек |   Старт  | Длительность | Начальный сектор | Конечный сектор
    ---------------------------------------------------------------------
       1  |  0:00.00 |    6:25.00   |           0      |      28874     
       2  |  6:25.00 |    4:18.00   |       28875      |      48224     
       3  | 10:43.00 |    4:00.00   |       48225      |      66224     
       4  | 14:43.00 |    3:57.00   |       66225      |      83999     
       5  | 18:40.00 |    5:08.00   |       84000      |     107099     
       6  | 23:48.00 |    4:49.00   |      107100      |     128774     
       7  | 28:37.00 |    3:45.00   |      128775      |     145649     
       8  | 32:22.00 |    3:53.00   |      145650      |     163124     
       9  | 36:15.00 |    3:54.00   |      163125      |     180674     
      10  | 40:09.00 |    4:36.00   |      180675      |     201374     
      11  | 44:45.00 |    3:46.00   |      201375      |     218324     
      12  | 48:31.00 |    3:36.00   |      218325      |     234524     
      13  | 52:07.00 |    4:08.00   |      234525      |     253124     
      14  | 56:15.00 |    3:55.00   |      253125      |     270749     
      15  | 60:10.00 |    4:07.00   |      270750      |     289274     
      16  | 64:17.00 |    3:51.00   |      289275      |     306599     
      17  | 68:08.00 |    3:30.00   |      306600      |     322349     
      18  | 71:38.00 |    3:22.00   |      322350      |     337499     

Характеристики диапазона извлечения и сообщения об ошибках

Выбранный диапазон

     Имя файла D:\Bit Torrent\Новая папка\Diaforoi - Gold  Ballad' s.wav

     Пиковый уровень 100.0 %
     Качество диапазона 100.0 %
     CRC теста 42E38531
     CRC копии 42E38531
     Копирование... OK

Ошибок не произошло

 
AccurateRip: сводка
 
Трек  1  нет в базе данных
Трек  2  нет в базе данных
Трек  3  нет в базе данных
Трек  4  нет в базе данных
Трек  5  нет в базе данных
Трек  6  нет в базе данных
Трек  7  нет в базе данных
Трек  8  нет в базе данных
Трек  9  нет в базе данных
Трек 10  нет в базе данных
Трек 11  нет в базе данных
Трек 12  нет в базе данных
Трек 13  нет в базе данных
Трек 14  нет в базе данных
Трек 15  нет в базе данных
Трек 16  нет в базе данных
Трек 17  нет в базе данных
Трек 18  нет в базе данных
 
Ни одного трека нет в базе AccurateRip

Конец отчёта
Ну дык два-то лучше, чем один. Однако...
mechanicsense
Ну так это да, но откуда он взялся ?

Страница 1 из 1

new_topic  reply_topic

Текущее время: 25-Янв 12:08
Часовой пояс: GMT + 4

m Сделано с любовью PR-CY.ru Каталог webplus.info