Вход на сайт

Имя:
Пароль:

· Забыли пароль?
logo
Портал Форум
Регистрация Вход


new_topic  reply_topic

  (Dance) Various - Дискотека Арлекина Vol. 44 1999, FLAC (image + .cue)

pic
Год выпуска: 1999
Страна: Россия
Жанр: Dance
Номер #: 4601136 500135 [ Mega Records ]
Продолжительность: ~ 78 минут


Тип издания: сборник
Аудио кодек: FLAC
Тип рипа: (image + .cue)
Битрейт аудио: lossless


Трэклист:

01. Zoom - Lois Lane
02. Reset - blue
03. Solid Base - set me free
04. Lady Violet - inside to outside
05. Caramell - jag ser pa dig
06. Betty N' Boop - mr.sun
07. Eiffel 65 - another rage
08. Cher - dov'e l'amore
09. Tat Jana - crazy may about you
10. The Candyman - candyman
11. Vengaboys - kiss
12. Jennifer Lopez - waiting for tonight
13. Eiffel 65 - silicon world
14. Christian Wunderrush - forever tonight
15. Funny - sing a song
16. Martinez & Laurie V. - my fire
17. Solid Base - stay with me
18. Adam Rickkitt - touch me
19. Love Inc. - you're a superstar
20. Love System - bim bam boy
21. Samira - i was him


Доп. информация: Данная серия сборников выходила ввиде апконверта на дисках и кассетах

Код:

Exact Audio Copy V0.99 prebeta 5 from 4. May 2009

Отчёт EAC об извлечении, выполненном 1. января 2011, 18:17

Various / Дискотека Арлекина Vol. 44

Дисковод: JLMS    XJ-HD166S   Adapter: 0  ID: 1

Режим чтения                 : Достоверность
Использование точного потока : Да
Отключение кэша аудио        : Да
Использование указателей C2  : Нет

Коррекция смещения при чтении                     : 12
Способность читать области Lead-in и Lead-out     : Нет
Заполнение пропущенных сэмплов тишиной            : Да
Удаление блоков с тишиной в начале и конце        : Нет
При вычислениях CRC использовались нулевые сэмплы : Да
Интерфейс                                         : Встроенный Win32-интерфейс для Win NT/2000

Выходной формат : Внутренние WAV-операции
Формат сэмплов  : 44.100 Гц; 16 бит; стерео

TOC извлечённого CD

     Трек |   Старт  | Длительность | Начальный сектор | Конечный сектор
    ---------------------------------------------------------------------
       1  |  0:00.00 |    4:15.37   |           0      |      19161     
       2  |  4:15.37 |    3:50.48   |       19162      |      36459     
       3  |  8:06.10 |    2:49.05   |       36460      |      49139     
       4  | 10:55.15 |    3:37.37   |       49140      |      65451     
       5  | 14:32.52 |    3:21.30   |       65452      |      80556     
       6  | 17:54.07 |    3:17.10   |       80557      |      95341     
       7  | 21:11.17 |    4:26.60   |       95342      |     115351     
       8  | 25:38.02 |    3:23.63   |      115352      |     130639     
       9  | 29:01.65 |    3:45.47   |      130640      |     147561     
      10  | 32:47.37 |    3:25.38   |      147562      |     162974     
      11  | 36:13.00 |    3:27.40   |      162975      |     178539     
      12  | 39:40.40 |    4:00.30   |      178540      |     196569     
      13  | 43:40.70 |    4:23.27   |      196570      |     216321     
      14  | 48:04.22 |    3:48.23   |      216322      |     233444     
      15  | 51:52.45 |    4:02.55   |      233445      |     251649     
      16  | 55:55.25 |    3:19.17   |      251650      |     266591     
      17  | 59:14.42 |    3:54.05   |      266592      |     284146     
      18  | 63:08.47 |    2:58.10   |      284147      |     297506     
      19  | 66:06.57 |    3:08.58   |      297507      |     311664     
      20  | 69:15.40 |    3:24.45   |      311665      |     327009     
      21  | 72:40.10 |    5:04.65   |      327010      |     349874     

Характеристики диапазона извлечения и сообщения об ошибках

Выбранный диапазон

     Имя файла C:\Temp\Образы\Various - Дискотека Арлекина Vol. 44.wav

     Пиковый уровень 97.7 %
     Качество диапазона 100.0 %
     CRC теста 2E3553B7
     CRC копии 2E3553B7
     Копирование... OK

Ошибок не произошло

Конец отчёта
....есть такой

Страница 1 из 1

new_topic  reply_topic

Текущее время: 25-Янв 11:17
Часовой пояс: GMT + 4

m Сделано с любовью PR-CY.ru Каталог webplus.info