Вход на сайт

Имя:
Пароль:

· Забыли пароль?
logo
Портал Форум
Регистрация Вход


new_topic  reply_topic

  (Eurodance) Masterboy - Generation Of Love 1995, FLAC (image + .cue)

pic
Год выпуска: 1995
Страна: Германия
Жанр: Eurodance
Номер #: 579 375-2
Продолжительность: ~ 20 минут

Тип издания: сингл
Аудио кодек: FLAC
Тип рипа: (image + .cue)
Битрейт аудио: lossless


Трэклист:

01. Generation Of Love (Radio Edit (Ipanema Mix))
02. Generation Of Love (Ipanema Maxi Version)
03. Generation Of Love (Radio Edit (Mondo Mix))
04. Generation Of Love (Mondo Maxi Version
)

Код:

Exact Audio Copy V0.99 prebeta 5 from 4. May 2009

Отчёт EAC об извлечении, выполненном 22. апреля 2011, 16:05

Masterboy / Generation Of Love

Дисковод: PLEXTOR DVDR   PX-800A   Adapter: 0  ID: 0

Режим чтения                 : Достоверность
Использование точного потока : Да
Отключение кэша аудио        : Да
Использование указателей C2  : Нет

Коррекция смещения при чтении                     : 48
Способность читать области Lead-in и Lead-out     : Нет
Заполнение пропущенных сэмплов тишиной            : Да
Удаление блоков с тишиной в начале и конце        : Нет
При вычислениях CRC использовались нулевые сэмплы : Да
Интерфейс                                         : Встроенный Win32-интерфейс для Win NT/2000

Выходной формат : Внутренние WAV-операции
Формат сэмплов  : 44.100 Гц; 16 бит; стерео

TOC извлечённого CD

     Трек |   Старт  | Длительность | Начальный сектор | Конечный сектор
    ---------------------------------------------------------------------
       1  |  0:00.33 |    3:41.65   |          33      |      16672     
       2  |  3:42.23 |    5:51.25   |       16673      |      43022     
       3  |  9:33.48 |    4:09.30   |       43023      |      61727     
       4  | 13:43.03 |    5:50.55   |       61728      |      88032     

Характеристики диапазона извлечения и сообщения об ошибках

Выбранный диапазон

     Имя файла C:\Temp\Образы\Masterboy - Generation Of Love.wav

     Пиковый уровень 97.1 %
     Качество диапазона 100.0 %
     CRC теста BAA53CFF
     CRC копии BAA53CFF
     Копирование... OK

Ошибок не произошло

 
AccurateRip: сводка
 
Трек  1  точное извлечение (доверие 16)  [32251EF6]
Трек  2  точное извлечение (доверие 15)  [B3EF0213]
Трек  3  точное извлечение (доверие 15)  [6F7135F6]
Трек  4  точное извлечение (доверие 13)  [2B300703]
 
Все треки извлечены точно

Конец отчёта

Страница 1 из 1

new_topic  reply_topic

Текущее время: 23-Сен 01:20
Часовой пояс: GMT + 4

m Сделано с любовью PR-CY.ru Каталог webplus.info