Вход на сайт

Имя:
Пароль:

· Забыли пароль?
logo
Портал Форум
Регистрация Вход


new_topic  reply_topic

  (Pop) Союз 18, full - 1996, FLAC (image + .cue)

pic
Год выпуска: 1996
Страна: Россия
Жанр: Pop
Номер #: SZCD 0618-96 (Студия "СОЮЗ")
Продолжительность: 0:49:38 + 0:54:01

Тип издания: сборник
Аудио кодек: FLAC
Тип рипа: (image + .cue)
Битрейт аудио: lossless

Треклист:

CD1

  1. Профессор Лебединский - Лимбо-бимбо
  2. Таня Буланова - Ясный мой свет
  3. Михаил Шуфутинский - Иллюзия
  4. Наталья Ветлицкая - Шила я платье
  5. Восток - Миражи
  6. Владимир Кузьмин - Семь морей
  7. Валерий Меладзе - Река времени
  8. Диана - Расскажи
  9. Александр Айвазов - Бабочка-луна
  10. Лицей - Осень
  11. Нэнси - Сальвэ Фарум
  12. Валерий Сюткин - 42 минуты


CD2

  1. Вадим Казаченко - Остаюсь
  2. Алена Сверидова - Бедная овечка
  3. Светлана Рерих - Дай мне музыку
  4. Сергей Дикий - Гитара
  5. Евгений Осин - Портрет работы Пабло Пикассо
  6. Мурат Насыров - Кто-то
  7. Вкус меда - Серьезный разговор
  8. Наталья Сенчукова - Небо номер семь
  9. Кай Метов - Такие вот дела
  10. Радиотранс - Опасная зона
  11. Золотое кольцо - Я не колдунья
  12. Чиж и Колибри - На поле танки грохотали
  13. Любовь Успенская - Карусель

Код:

Exact Audio Copy V0.99 prebeta 5 from 4. May 2009

Отчёт EAC об извлечении, выполненном 13. мая 2011, 1:16

Various / Союз18. CD1

Дисковод: TSSTcorpCDDVDW SH-S223B   Adapter: 2  ID: 0

Режим чтения                 : Достоверность
Использование точного потока : Да
Отключение кэша аудио        : Да
Использование указателей C2  : Нет

Коррекция смещения при чтении                     : 6
Способность читать области Lead-in и Lead-out     : Нет
Заполнение пропущенных сэмплов тишиной            : Да
Удаление блоков с тишиной в начале и конце        : Нет
При вычислениях CRC использовались нулевые сэмплы : Да
Интерфейс                                         : Встроенный Win32-интерфейс для Win NT/2000

Выходной формат : Внутренние WAV-операции
Формат сэмплов  : 44.100 Гц; 16 бит; стерео

TOC извлечённого CD

     Трек |   Старт  | Длительность | Начальный сектор | Конечный сектор
    ---------------------------------------------------------------------
       1  |  0:00.10 |    4:32.12   |          10      |      20421     
       2  |  4:32.22 |    3:28.33   |       20422      |      36054     
       3  |  8:00.55 |    3:55.70   |       36055      |      53749     
       4  | 11:56.50 |    3:22.32   |       53750      |      68931     
       5  | 15:19.07 |    3:32.53   |       68932      |      84884     
       6  | 18:51.60 |    4:46.02   |       84885      |     106336     
       7  | 23:37.62 |    4:25.03   |      106337      |     126214     
       8  | 28:02.65 |    3:56.45   |      126215      |     143959     
       9  | 31:59.35 |    3:35.22   |      143960      |     160106     
      10  | 35:34.57 |    4:29.65   |      160107      |     180346     
      11  | 40:04.47 |    4:54.15   |      180347      |     202411     
      12  | 44:58.62 |    4:40.03   |      202412      |     223414     

Характеристики диапазона извлечения и сообщения об ошибках

Выбранный диапазон

     Имя файла M:\Сборники\Сборники СОЮЗ\Союз-18 (1996) lossless, full\CD1\Союз18. CD1.wav

     Пиковый уровень 89.1 %
     Качество диапазона 100.0 %
     CRC теста CA9BD698
     CRC копии CA9BD698
     Копирование... OK

Ошибок не произошло

 
AccurateRip: сводка
 
Трек  1  точное извлечение (доверие 1)  [486A1D26]
Трек  2  точное извлечение (доверие 1)  [3B0967A4]
Трек  3  точное извлечение (доверие 1)  [6C87F54B]
Трек  4  точное извлечение (доверие 1)  [89BD6E25]
Трек  5  точное извлечение (доверие 1)  [96071774]
Трек  6  точное извлечение (доверие 1)  [AC4E108D]
Трек  7  точное извлечение (доверие 1)  [C8E70EF5]
Трек  8  точное извлечение (доверие 1)  [87E1B954]
Трек  9  точное извлечение (доверие 1)  [D0BC0729]
Трек 10  точное извлечение (доверие 1)  [76A1999A]
Трек 11  точное извлечение (доверие 1)  [D870FF25]
Трек 12  точное извлечение (доверие 1)  [8604E63A]
 
Все треки извлечены точно

Конец отчёта

Код:

Exact Audio Copy V0.99 prebeta 5 from 4. May 2009

Отчёт EAC об извлечении, выполненном 13. мая 2011, 2:38

Various / Союз 18. CD2

Дисковод: TSSTcorpCDDVDW SH-S223B   Adapter: 2  ID: 0

Режим чтения                 : Достоверность
Использование точного потока : Да
Отключение кэша аудио        : Да
Использование указателей C2  : Нет

Коррекция смещения при чтении                     : 6
Способность читать области Lead-in и Lead-out     : Нет
Заполнение пропущенных сэмплов тишиной            : Да
Удаление блоков с тишиной в начале и конце        : Нет
При вычислениях CRC использовались нулевые сэмплы : Да
Интерфейс                                         : Встроенный Win32-интерфейс для Win NT/2000

Выходной формат : Внутренние WAV-операции
Формат сэмплов  : 44.100 Гц; 16 бит; стерео

TOC извлечённого CD

     Трек |   Старт  | Длительность | Начальный сектор | Конечный сектор
    ---------------------------------------------------------------------
       1  |  0:00.10 |    4:34.22   |          10      |      20581     
       2  |  4:34.32 |    4:01.23   |       20582      |      38679     
       3  |  8:35.55 |    5:00.70   |       38680      |      61249     
       4  | 13:36.50 |    3:50.27   |       61250      |      78526     
       5  | 17:27.02 |    2:50.60   |       78527      |      91336     
       6  | 20:17.62 |    4:18.40   |       91337      |     110726     
       7  | 24:36.27 |    4:30.60   |      110727      |     131036     
       8  | 29:07.12 |    3:16.40   |      131037      |     145776     
       9  | 32:23.52 |    4:05.45   |      145777      |     164196     
      10  | 36:29.22 |    5:07.18   |      164197      |     187239     
      11  | 41:36.40 |    3:56.32   |      187240      |     204971     
      12  | 45:32.72 |    3:25.20   |      204972      |     220366     
      13  | 48:58.17 |    5:03.23   |      220367      |     243114     

Характеристики диапазона извлечения и сообщения об ошибках

Выбранный диапазон

     Имя файла M:\Сборники\Сборники СОЮЗ\Союз-18 (1996) lossless, full\CD2\Союз 18. CD2.wav

     Пиковый уровень 89.1 %
     Качество диапазона 100.0 %
     CRC теста 737DF80F
     CRC копии 737DF80F
     Копирование... OK

Ошибок не произошло

 
AccurateRip: сводка
 
Трек  1  точное извлечение (доверие 1)  [E631635B]
Трек  2  точное извлечение (доверие 1)  [FA098549]
Трек  3  точное извлечение (доверие 1)  [C90A4BE5]
Трек  4  точное извлечение (доверие 1)  [40BC9387]
Трек  5  точное извлечение (доверие 1)  [D2904DAF]
Трек  6  точное извлечение (доверие 1)  [45C41351]
Трек  7  точное извлечение (доверие 1)  [0662200C]
Трек  8  точное извлечение (доверие 1)  [E3212CE5]
Трек  9  точное извлечение (доверие 1)  [258C6832]
Трек 10  точное извлечение (доверие 1)  [5EEB8BE2]
Трек 11  точное извлечение (доверие 1)  [ED75F80D]
Трек 12  точное извлечение (доверие 1)  [3119954B]
Трек 13  точное извлечение (доверие 1)  [EF746CBB]
 
Все треки извлечены точно

Конец отчёта
Релиз: pic


Отличная серия сборников, правда поздние версии уже не те что раньше были.

Страница 1 из 1

new_topic  reply_topic

Текущее время: 27-Окт 03:49
Часовой пояс: GMT + 4

m Сделано с любовью PR-CY.ru Каталог webplus.info