Вход на сайт

Имя:
Пароль:

· Забыли пароль?
logo
Портал Форум
Регистрация Вход


new_topic  reply_topic

  (Euro House) Masterboy – Ride Like The Wind 2001, FLAC (image + .cue)

pic
Год выпуска: 2001
Страна: Германия
Жанр: Euro House
Номер #: 587 649-2
Продолжительность: ~ 20 минут

Тип издания: сингл
Аудио кодек: FLAC
Тип рипа: (image + .cue)
Битрейт аудио: lossless

Трэклист:

01. Ride Like The Wind (Radio Cut)
02. Ride Like The Wind (Radio Club Cut)
03. Ride Like The Wind (Extended Version)
04. Alright

Код:

Exact Audio Copy V0.99 prebeta 5 from 4. May 2009

Отчёт EAC об извлечении, выполненном 22. мая 2011, 20:05

Masterboy / Ride Like The Wind

Дисковод: PLEXTOR DVDR   PX-800A   Adapter: 0  ID: 0

Режим чтения                 : Достоверность
Использование точного потока : Да
Отключение кэша аудио        : Да
Использование указателей C2  : Нет

Коррекция смещения при чтении                     : 48
Способность читать области Lead-in и Lead-out     : Нет
Заполнение пропущенных сэмплов тишиной            : Да
Удаление блоков с тишиной в начале и конце        : Нет
При вычислениях CRC использовались нулевые сэмплы : Да
Интерфейс                                         : Встроенный Win32-интерфейс для Win NT/2000

Выходной формат : Внутренние WAV-операции
Формат сэмплов  : 44.100 Гц; 16 бит; стерео

TOC извлечённого CD

     Трек |   Старт  | Длительность | Начальный сектор | Конечный сектор
    ---------------------------------------------------------------------
       1  |  0:00.00 |    3:45.25   |           0      |      16899     
       2  |  3:45.25 |    4:22.25   |       16900      |      36574     
       3  |  8:07.50 |    6:18.62   |       36575      |      64986     
       4  | 14:26.37 |    4:55.27   |       64987      |      87138     

Характеристики диапазона извлечения и сообщения об ошибках

Выбранный диапазон

     Имя файла C:\Temp\Образы\Masterboy - Ride Like The Wind.wav

     Пиковый уровень 98.3 %
     Качество диапазона 100.0 %
     CRC теста EFAAF540
     CRC копии EFAAF540
     Копирование... OK

Ошибок не произошло

 
AccurateRip: сводка
 
Трек  1  нет в базе данных
Трек  2  нет в базе данных
Трек  3  нет в базе данных
Трек  4  нет в базе данных
 
Ни одного трека нет в базе AccurateRip

Конец отчёта

Страница 1 из 1

new_topic  reply_topic

Текущее время: 23-Окт 15:44
Часовой пояс: GMT + 4

m Сделано с любовью PR-CY.ru Каталог webplus.info