Вход на сайт

Имя:
Пароль:

· Забыли пароль?
logo
Портал Форум
Регистрация Вход


new_topic  reply_topic

  (Pop) Eesti Megamix - 2008, FLAC (image + .cue) lossless

pic
Eesti Megamix 2008
Эстонский мегамикс 2008


Год выпуска: 2008
Страна: Эстония
Жанр: Pop
Номер #: TOP CD 1201 (TopTen)
Продолжительность: 1:17:18

Тип издания: сборник
Аудио кодек: FLAC
Тип рипа: (image + .cue)
Битрейт аудио: lossless

Треклист:

  1. Intro
  2. Hellad Velled - Lõbus lugu
  3. Niki - Tea et minna nüüd võid
  4. KX Project - Let the Cat Out of the Bag
  5. Cherryland - Lummatud meel
  6. WhiteLabel - Sinuta
  7. Hylene - Täna rikun ma reegleid
  8. Tiia Past - Bailando
  9. Blondy - Hüljatud maa
  10. Janne ja Koit Toome - Number 1
  11. Miki - Kummipea
  12. Niki - Äike päike
  13. 2 Wild - Mind ära taha
  14. Rolf Junior - One on one (Vallo K. remix)
  15. Ergo - Nii lähedalt MCO mix
  16. Blondy - Sinuga koos (Maria)
  17. Släm - Tasteless
  18. Mad Masterz - Summer of Love
  19. 2U - Põhjamaa (hard-touch version)
  20. Velvet Voice - Why
  21. Dynamint - Miljoneid
  22. DJ Whirl - Summersun
  23. 2U - Öö
  24. Hellad Velled - Sinust laulu tegin ma
  25. Tape 6 - Shine on me
  26. Richie - 3 soovi (remix)
  27. Nightlight Duo - Angels everywhere
  28. Quattro - Siia ma jään
  29. Marco - Sind veel ma soovin
  30. Koit Toome ja Taisi Pettai - Suusapalavik
  31. Olga - Darila (A.Pokutni remix)
  32. Velvet Voice - In the Sky
  33. Pink Tank - Kinnisidee
  34. Quattro - Elu kui filmis
  35. Nightlight Duo - Öine valgus
  36. Ergo - Nii igal ööl
  37. KX Project - Fable Factory
  38. Sulo - Mulle meeldib see
  39. WhiteLabel - Ma ei näe ma ei kuule
  40. Tape 6 - Kanna mind veel
  41. Cherryland - Naeran muresid
  42. Dynamint - Ainus soov
  43. Niki - Sa oled see kes jääb (M.C.O. remix)
  44. Marco - Veel ootan sind
  45. Velvet Voice - Beatiful Life
  46. Cramp feat. Niki - Siis kui saabub päev (MCO remix)
  47. 2 Wild - Kaob kontroll
  48. PS Troika - Ei ma ei tantsi (I Don`t Feel Like Dancing)
  49. Släm - Tule mängi minuga
  50. Outro


picNon-Stoppic

Код:

Exact Audio Copy V0.99 prebeta 5 from 4. May 2009

Отчёт EAC об извлечении, выполненном 19. мая 2013, 6:36

Various / Eesti Megamix 2008

Дисковод: TSSTcorpCDDVDW SH-S223B   Adapter: 4  ID: 2

Режим чтения                 : Достоверность
Использование точного потока : Да
Отключение кэша аудио        : Да
Использование указателей C2  : Нет

Коррекция смещения при чтении                     : 6
Способность читать области Lead-in и Lead-out     : Нет
Заполнение пропущенных сэмплов тишиной            : Да
Удаление блоков с тишиной в начале и конце        : Нет
При вычислениях CRC использовались нулевые сэмплы : Да
Интерфейс                                         : Встроенный Win32-интерфейс для Win NT/2000

Выходной формат : Внутренние WAV-операции
Формат сэмплов  : 44.100 Гц; 16 бит; стерео

TOC извлечённого CD

     Трек |   Старт  | Длительность | Начальный сектор | Конечный сектор
    ---------------------------------------------------------------------
       1  |  0:00.00 |    0:22.54   |           0      |       1703     
       2  |  0:22.54 |    1:47.61   |        1704      |       9789     
       3  |  2:10.40 |    1:40.65   |        9790      |      17354     
       4  |  3:51.30 |    0:27.61   |       17355      |      19440     
       5  |  4:19.16 |    1:38.07   |       19441      |      26797     
       6  |  5:57.23 |    1:25.62   |       26798      |      33234     
       7  |  7:23.10 |    1:25.25   |       33235      |      39634     
       8  |  8:48.35 |    1:26.46   |       39635      |      46130     
       9  | 10:15.06 |    1:10.11   |       46131      |      51391     
      10  | 11:25.17 |    1:28.46   |       51392      |      58037     
      11  | 12:53.63 |    1:22.37   |       58038      |      64224     
      12  | 14:16.25 |    1:33.56   |       64225      |      71255     
      13  | 15:50.06 |    1:02.30   |       71256      |      75935     
      14  | 16:52.36 |    0:46.06   |       75936      |      79391     
      15  | 17:38.42 |    1:32.12   |       79392      |      86303     
      16  | 19:10.54 |    1:54.71   |       86304      |      94924     
      17  | 21:05.50 |    1:01.47   |       94925      |      99546     
      18  | 22:07.22 |    0:53.11   |       99547      |     103532     
      19  | 23:00.33 |    1:15.32   |      103533      |     109189     
      20  | 24:15.65 |    0:54.64   |      109190      |     113303     
      21  | 25:10.54 |    1:03.32   |      113304      |     118060     
      22  | 26:14.11 |    0:54.64   |      118061      |     122174     
      23  | 27:09.00 |    1:41.10   |      122175      |     129759     
      24  | 28:50.10 |    1:56.39   |      129760      |     138498     
      25  | 30:46.49 |    1:38.07   |      138499      |     145855     
      26  | 32:24.56 |    1:14.40   |      145856      |     151445     
      27  | 33:39.21 |    1:25.25   |      151446      |     157845     
      28  | 35:04.46 |    1:48.33   |      157846      |     165978     
      29  | 36:53.04 |    1:47.05   |      165979      |     174008     
      30  | 38:40.09 |    1:34.11   |      174009      |     181069     
      31  | 40:14.20 |    1:22.37   |      181070      |     187256     
      32  | 41:36.57 |    2:00.00   |      187257      |     196256     
      33  | 43:36.57 |    1:45.00   |      196257      |     204131     
      34  | 45:21.57 |    2:21.70   |      204132      |     214776     
      35  | 47:43.52 |    1:34.11   |      214777      |     221837     
      36  | 49:17.63 |    2:00.51   |      221838      |     230888     
      37  | 51:18.39 |    1:17.31   |      230889      |     236694     
      38  | 52:35.70 |    1:45.57   |      236695      |     244626     
      39  | 54:21.52 |    2:12.21   |      244627      |     254547     
      40  | 56:33.73 |    2:21.29   |      254548      |     265151     
      41  | 58:55.27 |    2:40.00   |      265152      |     277151     
      42  | 61:35.27 |    2:26.35   |      277152      |     288136     
      43  | 64:01.62 |    2:16.43   |      288137      |     298379     
      44  | 66:18.30 |    1:50.48   |      298380      |     306677     
      45  | 68:09.03 |    1:09.28   |      306678      |     311880     
      46  | 69:18.31 |    2:09.50   |      311881      |     321605     
      47  | 71:28.06 |    2:02.10   |      321606      |     330765     
      48  | 73:30.16 |    1:51.08   |      330766      |     339098     
      49  | 75:21.24 |    1:45.60   |      339099      |     347033     
      50  | 77:07.09 |    0:10.67   |      347034      |     347850     

Характеристики диапазона извлечения и сообщения об ошибках

Выбранный диапазон

     Имя файла M:\Эстонская музыка\Сборники\Eesti Megamix 2008\Eesti Megamix 2008.wav

     Пиковый уровень 99.0 %
     Качество диапазона 100.0 %
     CRC теста A293CC08
     CRC копии A293CC08
     Копирование... OK

Ошибок не произошло

 
AccurateRip: сводка
 
Трек  1  нет в базе данных
Трек  2  нет в базе данных
Трек  3  нет в базе данных
Трек  4  нет в базе данных
Трек  5  нет в базе данных
Трек  6  нет в базе данных
Трек  7  нет в базе данных
Трек  8  нет в базе данных
Трек  9  нет в базе данных
Трек 10  нет в базе данных
Трек 11  нет в базе данных
Трек 12  нет в базе данных
Трек 13  нет в базе данных
Трек 14  нет в базе данных
Трек 15  нет в базе данных
Трек 16  нет в базе данных
Трек 17  нет в базе данных
Трек 18  нет в базе данных
Трек 19  нет в базе данных
Трек 20  нет в базе данных
Трек 21  нет в базе данных
Трек 22  нет в базе данных
Трек 23  нет в базе данных
Трек 24  нет в базе данных
Трек 25  нет в базе данных
Трек 26  нет в базе данных
Трек 27  нет в базе данных
Трек 28  нет в базе данных
Трек 29  нет в базе данных
Трек 30  нет в базе данных
Трек 31  нет в базе данных
Трек 32  нет в базе данных
Трек 33  нет в базе данных
Трек 34  нет в базе данных
Трек 35  нет в базе данных
Трек 36  нет в базе данных
Трек 37  нет в базе данных
Трек 38  нет в базе данных
Трек 39  нет в базе данных
Трек 40  нет в базе данных
Трек 41  нет в базе данных
Трек 42  нет в базе данных
Трек 43  нет в базе данных
Трек 44  нет в базе данных
Трек 45  нет в базе данных
Трек 46  нет в базе данных
Трек 47  нет в базе данных
Трек 48  нет в базе данных
Трек 49  нет в базе данных
Трек 50  нет в базе данных
 
Ни одного трека нет в базе AccurateRip

Конец отчёта
dimassamid
где-то уже я его слышал Огромное тебе спасибо, отличная раздача как всегда.

Страница 1 из 1

new_topic  reply_topic

Текущее время: 22-Фев 23:57
Часовой пояс: GMT + 4

m Сделано с любовью