Вход на сайт

Имя:
Пароль:

· Забыли пароль?
logo
Портал Форум
Регистрация Вход


new_topic  reply_topic

  (House) That Kid Chris - Feel Tha Vibe 1997, WAV (tracks + .cue), lossless

pic
Год выпуска: 1997
Страна: Uk
Жанр: House
Номер #: Manifesto ‎– FESCD 16, Manifesto ‎– 574 025-2
Аудио кодек: WAV
Тип рипа: (tracks + .cue)
Битрейт аудио: lossless

Треклист:

01) Feel Tha Vibe (The Only Mix) (Edit)
02) Feel Tha Vibe (The Contractual Edit)
03) Feel Tha Vibe (Dex & Jonesey's Funk Train Mix)
04) Feel Tha Vibe (Masters Of The Vibe Mix)
05) Feel Tha Vibe (Itchy & Scratchy Mix)
06) Feel Tha Vibe (Papa's Got A Sweet Tooth Mix)


Доп. информация:
_______________________________________________
https://www.discogs.com/release/651144
___________________
pic

Код:

Exact Audio Copy V1.0 beta 3 from 29. August 2011

Отчёт EAC об извлечении, выполненном 1. октября 2013, 22:38

That Kid Chris / Feel Tha Vibe

Дисковод: TSSTcorpBDDVDW SE-506AB   Adapter: 2  ID: 0

Режим чтения                 : Достоверность
Использование точного потока : Да
Отключение кэша аудио        : Да
Использование указателей C2  : Нет

Коррекция смещения при чтении                     : 6
Способность читать области Lead-in и Lead-out     : Нет
Заполнение пропущенных сэмплов тишиной            : Да
Удаление блоков с тишиной в начале и конце        : Нет
При вычислениях CRC использовались нулевые сэмплы : Да
Интерфейс                                         : Встроенный Win32-интерфейс для Win NT/2000
Обработка зазоров                                 : Добавлено к предыдущему треку

Выходной формат : Внутренние WAV-операции
Формат сэмплов  : 44.100 Гц; 16 бит; стерео

TOC извлечённого CD

     Трек |   Старт  | Длительность | Начальный сектор | Конечный сектор
    ---------------------------------------------------------------------
       1  |  0:00.00 |    3:07.23   |           0      |      14047     
       2  |  3:07.23 |    3:29.42   |       14048      |      29764     
       3  |  6:36.65 |    6:20.58   |       29765      |      58322     
       4  | 12:57.48 |    5:28.70   |       58323      |      82992     
       5  | 18:26.43 |    6:54.60   |       82993      |     114102     
       6  | 25:21.28 |    6:09.35   |      114103      |     141812     

Трек  1

     Имя файла Z:\[HD]\- [Base House] [VA & CDM]\[CD-Infinity] - 3\[Flac] That Kid Chris - Feel Tha Vibe (CD, Maxi)\01 The Only Mix (Edit).wav

     Длина предзазора  0:00:02.00

     Пиковый уровень 98.8 %
     Скорость извлечения 1.5 X
     Качество трека 100.0 %
     CRC теста B18DF9DF
     CRC копии B18DF9DF
     Трек не обнаружен в базе AccurateRip
     Копирование... OK

Трек  2

     Имя файла Z:\[HD]\- [Base House] [VA & CDM]\[CD-Infinity] - 3\[Flac] That Kid Chris - Feel Tha Vibe (CD, Maxi)\02 The Contractual Edit.wav

     Длина предзазора  0:00:01.33

     Пиковый уровень 98.8 %
     Скорость извлечения 1.6 X
     Качество трека 100.0 %
     CRC теста C058ED07
     CRC копии C058ED07
     Трек не обнаружен в базе AccurateRip
     Копирование... OK

Трек  3

     Имя файла Z:\[HD]\- [Base House] [VA & CDM]\[CD-Infinity] - 3\[Flac] That Kid Chris - Feel Tha Vibe (CD, Maxi)\03 Dex & Jonesey's Funk Train Mix.wav

     Длина предзазора  0:00:01.32

     Пиковый уровень 98.8 %
     Скорость извлечения 2.0 X
     Качество трека 99.9 %
     CRC теста 8287B8C3
     CRC копии 8287B8C3
     Точное извлечение (достоверность 2)  [4B9095E8]  (AR v1)
     Копирование... OK

Трек  4

     Имя файла Z:\[HD]\- [Base House] [VA & CDM]\[CD-Infinity] - 3\[Flac] That Kid Chris - Feel Tha Vibe (CD, Maxi)\04 Masters Of The Vibe Mix.wav

     Длина предзазора  0:00:01.33

     Пиковый уровень 98.8 %
     Скорость извлечения 2.6 X
     Качество трека 100.0 %
     CRC теста 35F8E7DE
     CRC копии 35F8E7DE
     Точное извлечение (достоверность 2)  [D3F4E34C]  (AR v1)
     Копирование... OK

Трек  5

     Имя файла Z:\[HD]\- [Base House] [VA & CDM]\[CD-Infinity] - 3\[Flac] That Kid Chris - Feel Tha Vibe (CD, Maxi)\05 Itchy & Scratchy Mix.wav

     Длина предзазора  0:00:01.33

     Пиковый уровень 98.8 %
     Скорость извлечения 2.4 X
     Качество трека 99.9 %
     CRC теста BF359005
     CRC копии BF359005
     Точное извлечение (достоверность 2)  [C37709CD]  (AR v1)
     Копирование... OK

Трек  6

     Имя файла Z:\[HD]\- [Base House] [VA & CDM]\[CD-Infinity] - 3\[Flac] That Kid Chris - Feel Tha Vibe (CD, Maxi)\06 Papa's Got A Sweet Tooth Mix.wav

     Длина предзазора  0:00:01.33

     Пиковый уровень 98.8 %
     Скорость извлечения 1.4 X
     Качество трека 99.8 %
     CRC теста 752061C8
     CRC копии 752061C8
     Точное извлечение (достоверность 2)  [A77613D8]  (AR v1)
     Копирование... OK

 4 трек(и) скопированы точно
 2 трек(и) не содержатся в базе AccurateRip

Некоторые треки не прошли проверку на точность

Ошибок не произошло

Конец отчёта

==== Контрольная сумма отчёта EDA2B1C1FDDE351F7E1858D9F061104F9C88D26BB6AE9EB83A339964AAD8EEFF ====
thanks
thanks mate
nice, thanks !!

Страница 1 из 1

new_topic  reply_topic

Текущее время: 25-Июн 12:23
Часовой пояс: GMT + 4

m Сделано с любовью