Вход на сайт

Имя:
Пароль:

· Забыли пароль?
logo
Портал Форум
Регистрация Вход


new_topic  reply_topic

  (Pop) Союз 42, non-stop - 2008, FLAC (image + .cue) lossless

pic
Год выпуска: 2008
Страна: Россия
Жанр: Pop
Номер #: SZCD 5406-08 (Студия "СОЮЗ")
Продолжительность: 1:19:16

Тип издания: сборник
Аудио кодек: FLAC
Тип рипа: (image + .cue)
Битрейт аудио: lossless

Треклист:

  1. Arash feat. Анна Семенович - На моря
  2. Фабрика - Je T`aime
  3. Корни - Про тебя
  4. "Винтаж" и Елена Корикова - Плохая девочка
  5. Вика Дайнеко - Стоп, куда же я иду
  6. Группировка Ленинград - Дача (с альбома «Аврора»)
  7. Алла Пугачева - Ты там, я там
  8. Мумий Тролль - Контрабанды
  9. Юлия Ковальчук - Толкни меня
  10. Hotsky - Дождь на ладони
  11. DJ Smash & Fast food - Moscow never sleeps
  12. Игра Слов - Тобою любуюсь
  13. Город 312 - Невидимка
  14. Вельвеt - Стой!
  15. Потап и Настя Каменских - В натуре
  16. Таня - Обломки чувств
  17. Любэ - Заимка
  18. Надежда Кадышева, Александр Костюк и ансамбль "Золотое кольцо" - Ворожи не ворожи
  19. Стас Михайлов - Нежданная любовь
  20. Verona - Шаг за шагом
  21. Мандры - Коло млину
  22. Алёна Апина - Свадьба
  23. Ангел - А & DJ Slon - Джимми Джимми
  24. Planetaleto - Любимая
  25. Plazma & Алёна Водонаева - Бумажное небо

Код:

Exact Audio Copy V0.99 prebeta 5 from 4. May 2009

Отчёт EAC об извлечении, выполненном 28. декабря 2013, 21:14

Various / Союз-42

Дисковод: TSSTcorpCDDVDW SH-224BB   Adapter: 3  ID: 0

Режим чтения                 : Достоверность
Использование точного потока : Да
Отключение кэша аудио        : Да
Использование указателей C2  : Нет

Коррекция смещения при чтении                     : 6
Способность читать области Lead-in и Lead-out     : Нет
Заполнение пропущенных сэмплов тишиной            : Да
Удаление блоков с тишиной в начале и конце        : Нет
При вычислениях CRC использовались нулевые сэмплы : Да
Интерфейс                                         : Встроенный Win32-интерфейс для Win NT/2000

Выходной формат : Внутренние WAV-операции
Формат сэмплов  : 44.100 Гц; 16 бит; стерео

TOC извлечённого CD

     Трек |   Старт  | Длительность | Начальный сектор | Конечный сектор
    ---------------------------------------------------------------------
       1  |  0:00.00 |    2:57.34   |           0      |      13308     
       2  |  2:57.34 |    3:25.02   |       13309      |      28685     
       3  |  6:22.36 |    3:52.06   |       28686      |      46091     
       4  | 10:14.42 |    2:41.40   |       46092      |      58206     
       5  | 12:56.07 |    3:33.54   |       58207      |      74235     
       6  | 16:29.61 |    2:28.07   |       74236      |      85342     
       7  | 18:57.68 |    3:33.58   |       85343      |     101375     
       8  | 22:31.51 |    3:55.11   |      101376      |     119011     
       9  | 26:26.62 |    2:51.49   |      119012      |     131885     
      10  | 29:18.36 |    3:22.29   |      131886      |     147064     
      11  | 32:40.65 |    3:34.64   |      147065      |     163178     
      12  | 36:15.54 |    3:24.73   |      163179      |     178551     
      13  | 39:40.52 |    2:51.09   |      178552      |     191385     
      14  | 42:31.61 |    3:11.34   |      191386      |     205744     
      15  | 45:43.20 |    3:31.26   |      205745      |     221595     
      16  | 49:14.46 |    2:24.59   |      221596      |     232454     
      17  | 51:39.30 |    2:27.32   |      232455      |     243511     
      18  | 54:06.62 |    3:50.34   |      243512      |     260795     
      19  | 57:57.21 |    3:49.53   |      260796      |     278023     
      20  | 61:46.74 |    2:45.68   |      278024      |     290466     
      21  | 64:32.67 |    3:01.66   |      290467      |     304107     
      22  | 67:34.58 |    2:21.72   |      304108      |     314754     
      23  | 69:56.55 |    2:45.01   |      314755      |     327130     
      24  | 72:41.56 |    2:58.56   |      327131      |     340536     
      25  | 75:40.37 |    3:35.61   |      340537      |     356722     

Характеристики диапазона извлечения и сообщения об ошибках

Выбранный диапазон

     Имя файла K:\Русские сборники\Сборники СОЮЗ\Союз-42 (2008) lossless, non-stop\Союз-42.wav

     Пиковый уровень 96.6 %
     Качество диапазона 100.0 %
     CRC теста A307C9AE
     CRC копии A307C9AE
     Копирование... OK

Ошибок не произошло

 
AccurateRip: сводка
 
Трек  1  точность не определена (достоверность 1)  [A53CA844], AccurateRip вернул [BB3474A6]
Трек  2  точность не определена (достоверность 1)  [C4FBA243], AccurateRip вернул [DAE213EA]
Трек  3  точность не определена (достоверность 1)  [1D87C7C4], AccurateRip вернул [524239F8]
Трек  4  точность не определена (достоверность 1)  [2C682AD8], AccurateRip вернул [7D6D7063]
Трек  5  точность не определена (достоверность 1)  [60196E4F], AccurateRip вернул [CB3685C1]
Трек  6  точность не определена (достоверность 1)  [1C2530B3], AccurateRip вернул [9FA88C61]
Трек  7  точность не определена (достоверность 1)  [9DEE75E2], AccurateRip вернул [1B32C70B]
Трек  8  точность не определена (достоверность 1)  [DA4D8E49], AccurateRip вернул [58D5CE0E]
Трек  9  точность не определена (достоверность 1)  [FC8930FC], AccurateRip вернул [9B90DBC4]
Трек 10  точность не определена (достоверность 1)  [4185D90A], AccurateRip вернул [32333211]
Трек 11  точность не определена (достоверность 1)  [C86FE5AD], AccurateRip вернул [9353068C]
Трек 12  точность не определена (достоверность 1)  [D8BCDD02], AccurateRip вернул [5489A73A]
Трек 13  точность не определена (достоверность 1)  [B37DC2FC], AccurateRip вернул [A132992D]
Трек 14  точность не определена (достоверность 1)  [5B5FDA76], AccurateRip вернул [1022D51F]
Трек 15  точность не определена (достоверность 1)  [7EE1C195], AccurateRip вернул [707FE88E]
Трек 16  точность не определена (достоверность 1)  [5B3027E1], AccurateRip вернул [24B38542]
Трек 17  точность не определена (достоверность 1)  [CF84EBDB], AccurateRip вернул [F95CC6C9]
Трек 18  точность не определена (достоверность 1)  [CAB59AB3], AccurateRip вернул [DAEF1F65]
Трек 19  точность не определена (достоверность 1)  [35C45C77], AccurateRip вернул [03CB7CA1]
Трек 20  точность не определена (достоверность 1)  [B499102F], AccurateRip вернул [49A89F06]
Трек 21  точность не определена (достоверность 1)  [21DDDACE], AccurateRip вернул [BE4CF15A]
Трек 22  точность не определена (достоверность 1)  [E94F1EDF], AccurateRip вернул [E1E56011]
Трек 23  точность не определена (достоверность 1)  [84BC94CD], AccurateRip вернул [58C99AE1]
Трек 24  точность не определена (достоверность 1)  [1CABCDF1], AccurateRip вернул [86EE1728]
Трек 25  точность не определена (достоверность 1)  [FEB67217], AccurateRip вернул [3DC98334]
 
Ни один трек не прошёл проверки на точность
В вашей базе может быть иной вариант штамповки диска

Конец отчёта
Огромная благодарность Alex2GB за помощь в приобретении этого диска!

Страница 1 из 1

new_topic  reply_topic

Текущее время: 25-Июн 13:03
Часовой пояс: GMT + 4

m Сделано с любовью