Вход на сайт

Имя:
Пароль:

· Забыли пароль?
logo
Портал Форум
Регистрация Вход


new_topic  reply_topic

  (House) The Rumbar ‎– El Timbal 2003, WAV (tracks + .cue), lossless

pic
Год выпуска: 2003
Страна: France
Жанр: House
Номер #: Feel The Rhythm - FTR 4157-2
Тип издания: сингл
Аудио кодек: WAV
Тип рипа: (tracks + .cue)
Битрейт аудио: lossless

Треклист:

1) El Timbal (Radio Edit)
2) El Timbal (Original Marascia Version)
3) El Timbal (Marascia Hard Mix)
4) El Timbal (Kortezman Extended Mix)


Доп. информация:
_______________________________________________
https://www.discogs.com/Rumbar-El-Timbal/release/2141662

Код:

Exact Audio Copy V1.0 beta 3 from 29. August 2011

Отчёт EAC об извлечении, выполненном 16. июня 2013, 14:33

The Rumabar / El Timbal

Дисковод: TSSTcorpBDDVDW SE-506AB   Adapter: 2  ID: 0

Режим чтения                 : Достоверность
Использование точного потока : Да
Отключение кэша аудио        : Да
Использование указателей C2  : Нет

Коррекция смещения при чтении                     : 6
Способность читать области Lead-in и Lead-out     : Нет
Заполнение пропущенных сэмплов тишиной            : Да
Удаление блоков с тишиной в начале и конце        : Нет
При вычислениях CRC использовались нулевые сэмплы : Да
Интерфейс                                         : Встроенный Win32-интерфейс для Win NT/2000
Обработка зазоров                                 : Добавлено к предыдущему треку

Выходной формат : Внутренние WAV-операции
Формат сэмплов  : 44.100 Гц; 16 бит; стерео

TOC извлечённого CD

     Трек |   Старт  | Длительность | Начальный сектор | Конечный сектор
    ---------------------------------------------------------------------
       1  |  0:00.00 |    3:02.42   |           0      |      13691     
       2  |  3:02.42 |    4:48.58   |       13692      |      35349     
       3  |  7:51.25 |    4:23.67   |       35350      |      55141     
       4  | 12:15.17 |    5:04.45   |       55142      |      77986     

Трек  1

     Имя файла C:\2\[Flac] The Rumabar - El Timbal (Sax)\01 Трек01.wav

     Длина предзазора  0:00:02.00

     Пиковый уровень 98.8 %
     Скорость извлечения 1.5 X
     Качество трека 99.9 %
     CRC теста 11DC0035
     CRC копии 11DC0035
     Трек не обнаружен в базе AccurateRip
     Копирование... OK

Трек  2

     Имя файла C:\2\[Flac] The Rumabar - El Timbal (Sax)\02 Трек02.wav

     Длина предзазора  0:00:01.40

     Пиковый уровень 97.9 %
     Скорость извлечения 1.9 X
     Качество трека 100.0 %
     CRC теста 19DBA858
     CRC копии 19DBA858
     Трек не обнаружен в базе AccurateRip
     Копирование... OK

Трек  3

     Имя файла C:\2\[Flac] The Rumabar - El Timbal (Sax)\03 Трек03.wav

     Длина предзазора  0:00:01.43

     Пиковый уровень 97.9 %
     Скорость извлечения 2.3 X
     Качество трека 100.0 %
     CRC теста 6B928814
     CRC копии 6B928814
     Трек не обнаружен в базе AccurateRip
     Копирование... OK

Трек  4

     Имя файла C:\2\[Flac] The Rumabar - El Timbal (Sax)\04 Трек04.wav

     Длина предзазора  0:00:02.42

     Пиковый уровень 97.9 %
     Скорость извлечения 2.4 X
     Качество трека 100.0 %
     CRC теста 4B66CD75
     CRC копии 4B66CD75
     Трек не обнаружен в базе AccurateRip
     Копирование... OK

Ни одного трека нет в базе AccurateRip

Ошибок не произошло

Конец отчёта

---- CUETools DB Plugin V2.1.3

[CTDB TOCID: 9ubo7rIrk_Ak0amzHhkMkgeUgH8-] database access error: Невозможно разрешить удаленное имя: 'db.cuetools.net'

==== Контрольная сумма отчёта E5AE5335B8AE6B9B6D625C0441C0EB894333612FC151008D917004B8C320C8FB ====
Many thanks ….. been looking for this one long time ago

Страница 1 из 1

new_topic  reply_topic

Текущее время: 26-Фев 04:40
Часовой пояс: GMT + 4

m Сделано с любовью