Вход на сайт

Имя:
Пароль:

· Забыли пароль?
logo
Портал Форум
Регистрация Вход


new_topic  reply_topic

  (Pop) Miki - Craziest Hits - 2011, FLAC (image + .cue) lossless

pic
Год выпуска: 2011
Страна: Эстония
Производитель: Эстония
Жанр: Pop
Номер #: нет (SpaceBoy Production)
Продолжительность: 1:19:45

Тип издания: альбом
Аудио кодек: FLAC
Тип рипа: (image + .cue)
Битрейт аудио: lossless

Треклист:

  1. Turbo-pann
  2. Kummipea
  3. Türnüffel
  4. Sa oled see kes jääb
  5. Vuntsidega mees
  6. Mr. Right
  7. Tiigrikutsu
  8. Väike saatan
  9. Welcome to Estonia
  10. Ohh, Kummipuu
  11. Rahutu Tuhkatriinu
  12. Kotid
  13. Turbo-pann (Karaoke)
  14. Kummipea (Karaoke)
  15. Türnüffel (Karaoke)
  16. Sa oled see kes jääb (Karaoke)
  17. Vuntsidega mees (Karaoke)
  18. Mr. Right (Karaoke)
  19. Tiigrikutsu (Karaoke)
  20. Väike saatan (Karaoke)
  21. Welcome to Estonia (Karaoke)
  22. Ohh, Kummipuu (Karaoke)
  23. Rahutu Tuhkatriinu (Karaoke)
  24. Kotid (Karaoke)



Код:

Exact Audio Copy V0.99 prebeta 5 from 4. May 2009

Отчёт EAC об извлечении, выполненном 13. февраля 2014, 20:30

Miki / Craziest Hits

Дисковод: TSSTcorpCDDVDW SH-224BB   Adapter: 3  ID: 0

Режим чтения                 : Достоверность
Использование точного потока : Да
Отключение кэша аудио        : Да
Использование указателей C2  : Нет

Коррекция смещения при чтении                     : 6
Способность читать области Lead-in и Lead-out     : Нет
Заполнение пропущенных сэмплов тишиной            : Да
Удаление блоков с тишиной в начале и конце        : Нет
При вычислениях CRC использовались нулевые сэмплы : Да
Интерфейс                                         : Встроенный Win32-интерфейс для Win NT/2000

Выходной формат : Внутренние WAV-операции
Формат сэмплов  : 44.100 Гц; 16 бит; стерео

TOC извлечённого CD

     Трек |   Старт  | Длительность | Начальный сектор | Конечный сектор
    ---------------------------------------------------------------------
       1  |  0:00.00 |    3:30.00   |           0      |      15749     
       2  |  3:30.00 |    3:13.64   |       15750      |      30288     
       3  |  6:43.64 |    3:00.12   |       30289      |      43800     
       4  |  9:44.01 |    3:12.68   |       43801      |      58268     
       5  | 12:56.69 |    3:29.07   |       58269      |      73950     
       6  | 16:26.01 |    3:00.74   |       73951      |      87524     
       7  | 19:27.00 |    3:20.20   |       87525      |     102544     
       8  | 22:47.20 |    3:45.52   |      102545      |     119471     
       9  | 26:32.72 |    3:44.01   |      119472      |     136272     
      10  | 30:16.73 |    3:14.42   |      136273      |     150864     
      11  | 33:31.40 |    3:51.04   |      150865      |     168193     
      12  | 37:22.44 |    3:08.69   |      168194      |     182362     
      13  | 40:31.38 |    3:28.12   |      182363      |     197974     
      14  | 43:59.50 |    3:12.49   |      197975      |     212423     
      15  | 47:12.24 |    2:59.36   |      212424      |     225884     
      16  | 50:11.60 |    3:11.47   |      225885      |     240256     
      17  | 53:23.32 |    3:28.52   |      240257      |     255908     
      18  | 56:52.09 |    2:59.74   |      255909      |     269407     
      19  | 59:52.08 |    3:20.56   |      269408      |     284463     
      20  | 63:12.64 |    3:46.29   |      284464      |     301442     
      21  | 66:59.18 |    3:43.36   |      301443      |     318203     
      22  | 70:42.54 |    3:54.13   |      318204      |     335766     
      23  | 74:36.67 |    3:07.62   |      335767      |     349853     
      24  | 77:44.54 |    2:00.56   |      349854      |     358909     

Характеристики диапазона извлечения и сообщения об ошибках

Выбранный диапазон

     Имя файла M:\Эстонская музыка\Miki (lossless)\Miki - Craziest Hits (2011)\Miki - Craziest Hits.wav

     Пиковый уровень 99.2 %
     Качество диапазона 100.0 %
     CRC теста 51680774
     CRC копии 51680774
     Копирование... OK

Ошибок не произошло

 
AccurateRip: сводка
 
Трек  1  нет в базе данных
Трек  2  нет в базе данных
Трек  3  нет в базе данных
Трек  4  нет в базе данных
Трек  5  нет в базе данных
Трек  6  нет в базе данных
Трек  7  нет в базе данных
Трек  8  нет в базе данных
Трек  9  нет в базе данных
Трек 10  нет в базе данных
Трек 11  нет в базе данных
Трек 12  нет в базе данных
Трек 13  нет в базе данных
Трек 14  нет в базе данных
Трек 15  нет в базе данных
Трек 16  нет в базе данных
Трек 17  нет в базе данных
Трек 18  нет в базе данных
Трек 19  нет в базе данных
Трек 20  нет в базе данных
Трек 21  нет в базе данных
Трек 22  нет в базе данных
Трек 23  нет в базе данных
Трек 24  нет в базе данных
 
Ни одного трека нет в базе AccurateRip

Конец отчёта
dimassamid
огромное тебе спасибо за отличную музыку! Всегда можешь удивлять сюрпризами

Страница 1 из 1

new_topic  reply_topic

Текущее время: 17-Окт 07:13
Часовой пояс: GMT + 4

m Сделано с любовью PR-CY.ru Каталог webplus.info