Вход на сайт

Имя:
Пароль:

· Забыли пароль?
logo
Портал Форум
Регистрация Вход


new_topic  reply_topic

  (House) Cascada - Everytime We Touch 2005, APE (image + .cue), lossless

pic
Год выпуска: 2005
Страна: Германия
Производитель: Австрия
Жанр: House
Номер #: BR 021669-5 ( Balloon Records )
Продолжительность: 42:43

Тип издания: сингл
Аудио кодек: APE
Тип рипа: (image + .cue)
Битрейт аудио: lossless

Треклист:

1. Everytime We Touch ( Radio Edit )
2. Everytime We Touch ( Rocco vs. Bass-T Radio Cut )
3. Everytime We Touch ( Verano Edit )
4. Everytime We Touch ( Dan Winter Edit )
5. Everytime We Touch ( Scarf ! Remix )
6. Everytime We Touch ( Original Club Mix )
7. Everytime We Touch ( Rocco vs. Bass-T Remix )
8. Everytime We Touch ( Verano Remix )
9. Everytime We Touch ( Dan Winter Remix )

Код:

Exact Audio Copy V0.99 prebeta 5 from 4. May 2009

Отчёт EAC об извлечении, выполненном 30. января 2014, 10:24

Cascada / Everytime  We  Touch

Дисковод: ASUS    DRW-2014L1T   Adapter: 5  ID: 0

Режим чтения                 : Достоверность
Использование точного потока : Да
Отключение кэша аудио        : Да
Использование указателей C2  : Нет

Коррекция смещения при чтении                     : 6
Способность читать области Lead-in и Lead-out     : Нет
Заполнение пропущенных сэмплов тишиной            : Да
Удаление блоков с тишиной в начале и конце        : Нет
При вычислениях CRC использовались нулевые сэмплы : Да
Интерфейс                                         : Встроенный Win32-интерфейс для Win NT/2000

Выходной формат          : Monkey's Audio (без потерь)
Выбранный битрейт        : Extra High Lossless Compression
Качество                 : Высокий
Добавление ID3-тэга      : Нет
Утилита сжатия           : C:\Program Files (x86)\Monkey's Audio\MAC.exe
Дополнительные параметры : -w "Artist=%a" -w "Title=%t" -w "Album=%g" -w "Year=%y" -w "Track=%n" -w "Genre=%m" -h %s %d

TOC извлечённого CD

     Трек |   Старт  | Длительность | Начальный сектор | Конечный сектор
    ---------------------------------------------------------------------
       1  |  0:00.00 |    3:19.02   |           0      |      14926     
       2  |  3:19.02 |    3:06.17   |       14927      |      28893     
       3  |  6:25.19 |    3:23.33   |       28894      |      44151     
       4  |  9:48.52 |    3:36.71   |       44152      |      60422     
       5  | 13:25.48 |    5:33.72   |       60423      |      85469     
       6  | 18:59.45 |    5:33.13   |       85470      |     110457     
       7  | 24:32.58 |    5:42.43   |      110458      |     136150     
       8  | 30:15.26 |    5:52.55   |      136151      |     162605     
       9  | 36:08.06 |    6:35.09   |      162606      |     192239     

Характеристики диапазона извлечения и сообщения об ошибках

Выбранный диапазон

     Имя файла D:\Bit Torrent\Cascada - Everytime  We  Touch  2005\Cascada - Everytime  We  Touch.wav

     Пиковый уровень 100.0 %
     Качество диапазона 99.9 %
     CRC теста 928D2D6E
     CRC копии 928D2D6E
     Копирование... OK

Ошибок не произошло

 
AccurateRip: сводка
 
Трек  1  нет в базе данных
Трек  2  нет в базе данных
Трек  3  нет в базе данных
Трек  4  нет в базе данных
Трек  5  нет в базе данных
Трек  6  нет в базе данных
Трек  7  нет в базе данных
Трек  8  нет в базе данных
Трек  9  нет в базе данных
 
Ни одного трека нет в базе AccurateRip

Конец отчёта
NICE SONG
Very Nice
Please Tell me how to Download
Sorry. Only change or sale. Here free
https://rutracker.org/forum/tracker.php?nm=Cascada
ok thanks

Страница 1 из 1

new_topic  reply_topic

Текущее время: 26-Фев 05:58
Часовой пояс: GMT + 4

m Сделано с любовью