Вход на сайт

Имя:
Пароль:

· Забыли пароль?
logo
Портал Форум
Регистрация Вход


new_topic  reply_topic

  (Club House, Hard House) The Shrink ‎– Are You Ready To Party? 2000, CD-Maxi, WAV (tracks + .cue), lossless

pic
Год выпуска: 2000
Страна: UK
Жанр: Club House, Hard House
Номер #: NuLife Recordings - 74321 78377 2
Тип издания: сингл
Аудио кодек: WAV
Тип рипа: (tracks + .cue)
Битрейт аудио: lossless

Треклист:

1) Are You Ready To Party? (Radio Edit)
2) Are You Ready To Party? (Vocal Version)
3) Are You Ready To Party? (BK Remix)


Доп. информация:
_______________________________________________
https://www.discogs.com/Shrink-Are-You-Ready-To-Party/release/308928

Код:

Exact Audio Copy V1.0 beta 3 from 29. August 2011

Отчёт EAC об извлечении, выполненном 26. марта 2013, 22:02

The Shrink - Are you ready party / The Shrink - Are you ready party

Дисковод: TSSTcorpBDDVDW SE-506AB   Adapter: 2  ID: 0

Режим чтения                 : Достоверность
Использование точного потока : Да
Отключение кэша аудио        : Да
Использование указателей C2  : Нет

Коррекция смещения при чтении                     : 6
Способность читать области Lead-in и Lead-out     : Нет
Заполнение пропущенных сэмплов тишиной            : Да
Удаление блоков с тишиной в начале и конце        : Нет
При вычислениях CRC использовались нулевые сэмплы : Да
Интерфейс                                         : Встроенный Win32-интерфейс для Win NT/2000
Обработка зазоров                                 : Добавлено к предыдущему треку

Выходной формат : Внутренние WAV-операции
Формат сэмплов  : 44.100 Гц; 16 бит; стерео

TOC извлечённого CD

     Трек |   Старт  | Длительность | Начальный сектор | Конечный сектор
    ---------------------------------------------------------------------
       1  |  0:00.32 |    3:50.43   |          32      |      17324     
       2  |  3:51.00 |    6:09.35   |       17325      |      45034     
       3  | 10:00.35 |    7:20.27   |       45035      |      78061     

Трек  1

     Имя файла Z:\[HD]\- [Base House] [VA & CDM]\[Синглы]\[Flac] The Shrink\2000 - Are you ready party\(2000) (single) (01) The Shrink - Are you ready party (Radio edit).wav

     Длина предзазора  0:00:02.32

     Пиковый уровень 98.8 %
     Скорость извлечения 1.9 X
     Качество трека 100.0 %
     CRC теста 0F76E22D
     CRC копии 0F76E22D
     Трек не обнаружен в базе AccurateRip
     Копирование... OK

Трек  2

     Имя файла Z:\[HD]\- [Base House] [VA & CDM]\[Синглы]\[Flac] The Shrink\2000 - Are you ready party\(2000) (single) (02) The Shrink - Are you ready party (Vocal version).wav

     Длина предзазора  0:00:02.50

     Пиковый уровень 98.8 %
     Скорость извлечения 2.3 X
     Качество трека 100.0 %
     CRC теста E91D0A8D
     CRC копии E91D0A8D
     Трек не обнаружен в базе AccurateRip
     Копирование... OK

Трек  3

     Имя файла Z:\[HD]\- [Base House] [VA & CDM]\[Синглы]\[Flac] The Shrink\2000 - Are you ready party\(2000) (single) (03) The Shrink - Are you ready party (BK remix).wav

     Длина предзазора  0:00:02.35

     Пиковый уровень 98.8 %
     Скорость извлечения 2.3 X
     Качество трека 99.9 %
     CRC теста 2205B261
     CRC копии 2205B261
     Трек не обнаружен в базе AccurateRip
     Копирование... OK

Ни одного трека нет в базе AccurateRip

Ошибок не произошло

Конец отчёта

==== Контрольная сумма отчёта BC470FA68937DBE6332C001C26CD1F9B2091DC1F0693BF3CCD8C5F8EE2454A09 ====

direx писал(а):

Shrink, The
типо лупа за Исправь в название
Ищу этот сингл

Пожалуйста, не могли бы вы compartime

Это очень благодарна

привет из Перу
имперский город Куско
Ищу этот сингл

Пожалуйста, не могли бы вы compartime

Это очень благодарна

привет из Перу
имперский город Куско

Страница 1 из 1

new_topic  reply_topic

Текущее время: 26-Фев 04:33
Часовой пояс: GMT + 4

m Сделано с любовью