Вход на сайт

Имя:
Пароль:

· Забыли пароль?
logo
Портал Форум
Регистрация Вход


Статистика раздачи

Размер: 369 MB | Зарегистрирован: 9 лет | Торрент скачан: 2 раза
new_topic  reply_topic

  (Pop) Alla - Оглянись 2000, FLAC (image + .cue)

pic
Год выпуска: 2000
Страна: Германия
Жанр: Pop
Номер #: EL 18-0800 (East Level)
Продолжительность: 00:49:06

Тип издания: альбом
Аудио кодек: FLAC
Тип рипа: (image + .cue)
Битрейт аудио: lossless


Треклист:

01. Intro East Level
02. Ревность
03. Пойми Меня
04. Капитан
05. Лайнер
06. Все Было Зря
07. За Окном
08. Ты Самый Красивый
09. Желтая Луна
10. Кукла
11. Не Уходи
12. Верь в Любовь
13. Ангел
14. Лайнер (караоке)

Код:

Exact Audio Copy V0.99 prebeta 5 from 4. May 2009

Отчёт EAC об извлечении, выполненном 10. октября 2011, 16:57

Alla / Оглянись

Дисковод: HL-DT-STDVDRAM GSA-T50N   Adapter: 2  ID: 0

Режим чтения                 : Достоверность
Использование точного потока : Да
Отключение кэша аудио        : Да
Использование указателей C2  : Нет

Коррекция смещения при чтении                     : 667
Способность читать области Lead-in и Lead-out     : Нет
Заполнение пропущенных сэмплов тишиной            : Да
Удаление блоков с тишиной в начале и конце        : Нет
При вычислениях CRC использовались нулевые сэмплы : Да
Интерфейс                                         : Встроенный Win32-интерфейс для Win NT/2000

Выходной формат : Внутренние WAV-операции
Формат сэмплов  : 44.100 Гц; 16 бит; стерео

TOC извлечённого CD

     Трек |   Старт  | Длительность | Начальный сектор | Конечный сектор
    ---------------------------------------------------------------------
       1  |  0:00.00 |    0:27.49   |           0      |       2073     
       2  |  0:27.49 |    3:34.64   |        2074      |      18187     
       3  |  4:02.38 |    3:38.38   |       18188      |      34575     
       4  |  7:41.01 |    3:35.55   |       34576      |      50755     
       5  | 11:16.56 |    3:15.08   |       50756      |      65388     
       6  | 14:31.64 |    3:18.39   |       65389      |      80277     
       7  | 17:50.28 |    3:33.41   |       80278      |      96293     
       8  | 21:23.69 |    4:25.00   |       96294      |     116168     
       9  | 25:48.69 |    3:26.47   |      116169      |     131665     
      10  | 29:15.41 |    4:38.17   |      131666      |     152532     
      11  | 33:53.58 |    3:38.46   |      152533      |     168928     
      12  | 37:32.29 |    4:12.13   |      168929      |     187841     
      13  | 41:44.42 |    4:08.35   |      187842      |     206476     
      14  | 45:53.02 |    3:13.03   |      206477      |     220954     

Характеристики диапазона извлечения и сообщения об ошибках

Выбранный диапазон

     Имя файла C:\Users\Alex\Desktop\Alla - Оглянись.wav

     Пиковый уровень 100.0 %
     Качество диапазона 99.9 %
     CRC теста F4EF24D1
     CRC копии F4EF24D1
     Копирование... OK

Ошибок не произошло

 
AccurateRip: сводка
 
Трек  1  нет в базе данных
Трек  2  нет в базе данных
Трек  3  нет в базе данных
Трек  4  нет в базе данных
Трек  5  нет в базе данных
Трек  6  нет в базе данных
Трек  7  нет в базе данных
Трек  8  нет в базе данных
Трек  9  нет в базе данных
Трек 10  нет в базе данных
Трек 11  нет в базе данных
Трек 12  нет в базе данных
Трек 13  нет в базе данных
Трек 14  нет в базе данных
 
Ни одного трека нет в базе AccurateRip

Конец отчёта
Данный материал из частной коллекции пользователя и носит характер объявления. Если вас заинтересовала данная тема, вы можете связаться с автором сообщения и обсудить детали обмена. Для более подробной информации прочтите правила обмена.
Спасибо за такой раритетный альбом!
На здоровье мой друг!
Alex2GB ты на немчеГов перешел? Круто
dimka007 да нет не перешел, просто решил купить этот хороший рар
Alex2GB это не рар
dimka007
Klassnij al#bom zhal' ne magu skachat'

Страница 1 из 1

new_topic  reply_topic

Текущее время: 23-Сен 01:35
Часовой пояс: GMT + 4

m Сделано с любовью PR-CY.ru Каталог webplus.info