Вход на сайт

Имя:
Пароль:

· Забыли пароль?
logo
Портал Форум
Регистрация Вход


Статистика раздачи

Размер: 453 MB | Зарегистрирован: 9 лет | Торрент скачан: 1 раз
new_topic  reply_topic

  (Pop) Юрий Хоменья - Забытый город - 2001, FLAC (image + .cue)

pic
Год выпуска: 2001
Страна: Эстония
Жанр: Pop
Номер #: REC 0014.2 (Records 2000)
Продолжительность: 1:02:55

Тип контента: альбом
Аудио кодек: FLAC
Тип рипа: (image + .cue)
Битрейт аудио: lossless

Треклист:
  1. Забытый город
  2. Я включаю мир
  3. Просто чужой
  4. Серия
  5. Сломанный мир
  6. Вычеркни лишнее
  7. Первый порыв
  8. Жизнь длиннее разлуки
  9. Последний ноктюрн
  10. За стеклом
  11. Звёзды в моих глазах
  12. Дневник
  13. За стеклом (dance mix)
  14. Дневник (dance mix)
  15. Storia
  16. Call me

Код:

Exact Audio Copy V0.99 prebeta 5 from 4. May 2009

Отчёт EAC об извлечении, выполненном 27. октября 2011, 8:28

Juri Homenja / Забытый город

Дисковод: TSSTcorpCDDVDW SH-S223B   Adapter: 2  ID: 0

Режим чтения                 : Достоверность
Использование точного потока : Да
Отключение кэша аудио        : Да
Использование указателей C2  : Нет

Коррекция смещения при чтении                     : 6
Способность читать области Lead-in и Lead-out     : Нет
Заполнение пропущенных сэмплов тишиной            : Да
Удаление блоков с тишиной в начале и конце        : Нет
При вычислениях CRC использовались нулевые сэмплы : Да
Интерфейс                                         : Встроенный Win32-интерфейс для Win NT/2000

Выходной формат : Внутренние WAV-операции
Формат сэмплов  : 44.100 Гц; 16 бит; стерео

TOC извлечённого CD

     Трек |   Старт  | Длительность | Начальный сектор | Конечный сектор
    ---------------------------------------------------------------------
       1  |  0:00.00 |    3:54.00   |           0      |      17549     
       2  |  3:54.00 |    3:27.43   |       17550      |      33117     
       3  |  7:21.43 |    4:22.38   |       33118      |      52805     
       4  | 11:44.06 |    3:01.15   |       52806      |      66395     
       5  | 14:45.21 |    3:52.23   |       66396      |      83818     
       6  | 18:37.44 |    4:30.65   |       83819      |     104133     
       7  | 23:08.34 |    2:55.32   |      104134      |     117290     
       8  | 26:03.66 |    4:06.24   |      117291      |     135764     
       9  | 30:10.15 |    4:19.32   |      135765      |     155221     
      10  | 34:29.47 |    4:01.44   |      155222      |     173340     
      11  | 38:31.16 |    4:38.05   |      173341      |     194195     
      12  | 43:09.21 |    3:57.23   |      194196      |     211993     
      13  | 47:06.44 |    4:32.29   |      211994      |     232422     
      14  | 51:38.73 |    3:44.40   |      232423      |     249262     
      15  | 55:23.38 |    4:32.38   |      249263      |     269700     
      16  | 59:56.01 |    2:59.31   |      269701      |     283156     

Характеристики диапазона извлечения и сообщения об ошибках

Выбранный диапазон

     Имя файла M:\Эстонская музыка\Juri Homenja (lossless)\Юрий Хоменья - Забытый город (2001)\Юрий Хоменья - Забытый город.wav

     Пиковый уровень 100.0 %
     Качество диапазона 100.0 %
     CRC теста F9AEBAEC
     CRC копии F9AEBAEC
     Копирование... OK

Ошибок не произошло

 
AccurateRip: сводка
 
Трек  1  нет в базе данных
Трек  2  нет в базе данных
Трек  3  нет в базе данных
Трек  4  нет в базе данных
Трек  5  нет в базе данных
Трек  6  нет в базе данных
Трек  7  нет в базе данных
Трек  8  нет в базе данных
Трек  9  нет в базе данных
Трек 10  нет в базе данных
Трек 11  нет в базе данных
Трек 12  нет в базе данных
Трек 13  нет в базе данных
Трек 14  нет в базе данных
Трек 15  нет в базе данных
Трек 16  нет в базе данных
 
Ни одного трека нет в базе AccurateRip

Конец отчёта

Релиз: pic


Данный материал из частной коллекции пользователя и носит характер объявления. Если вас заинтересовала данная тема, вы можете связаться с автором сообщения и обсудить детали обмена. Для более подробной информации прочтите правила обмена.
dimassamid круто ты подтарился однако, спасибо!

Страница 1 из 1

new_topic  reply_topic

Текущее время: 22-Сен 23:40
Часовой пояс: GMT + 4

m Сделано с любовью PR-CY.ru Каталог webplus.info