Вход на сайт

Имя:
Пароль:

· Забыли пароль?
logo
Портал Форум
Регистрация Вход


Статистика раздачи

Размер: 394 MB | Зарегистрирован: 9 лет | Торрент скачан: 0 раз
new_topic  reply_topic

  (Pop) Вася Пряников - Разлейте русской водки по стаканам - 2001, FLAC (image + .cue) lossless

pic
Год выпуска: 2001
Страна: Германия
Жанр: Pop
Номер #: EL 21 0101 (East Level)
Продолжительность: 0:52:40

Тип издания: альбом
Аудио кодек: FLAC
Тип рипа: (image + .cue)
Битрейт аудио: lossless

Треклист:

  1. Intro East Level
  2. На службу в Бундесвер /RMX 2001/
  3. Рыбацкая /RMX 2001/
  4. Две березы /RMX 2001/
  5. Автобан Nr.2 /RMX 2001/
  6. Угонщик /RMX 2001/
  7. Эх, служил, да не тужил /RMX 2001/
  8. Автобан - не космос /RMX 2001/
  9. Косячок-пустячок /RMX 2001/
  10. Папиросы /RMX 2001/
  11. Русаки /RMX 2001/
  12. Разлейте русской водки по стаканам /Turbo-Club-RMX 2001/

Код:

Exact Audio Copy V0.99 prebeta 5 from 4. May 2009

Отчёт EAC об извлечении, выполненном 29. октября 2011, 1:01

Вася Пряников / Разлейте русской водки по стаканам

Дисковод: TSSTcorpCDDVDW SH-S223B   Adapter: 2  ID: 0

Режим чтения                 : Достоверность
Использование точного потока : Да
Отключение кэша аудио        : Да
Использование указателей C2  : Нет

Коррекция смещения при чтении                     : 6
Способность читать области Lead-in и Lead-out     : Нет
Заполнение пропущенных сэмплов тишиной            : Да
Удаление блоков с тишиной в начале и конце        : Нет
При вычислениях CRC использовались нулевые сэмплы : Да
Интерфейс                                         : Встроенный Win32-интерфейс для Win NT/2000

Выходной формат : Внутренние WAV-операции
Формат сэмплов  : 44.100 Гц; 16 бит; стерео

TOC извлечённого CD

     Трек |   Старт  | Длительность | Начальный сектор | Конечный сектор
    ---------------------------------------------------------------------
       1  |  0:00.00 |    0:25.43   |           0      |       1917     
       2  |  0:25.43 |    5:01.53   |        1918      |      24545     
       3  |  5:27.21 |    3:19.45   |       24546      |      39515     
       4  |  8:46.66 |    4:21.11   |       39516      |      59101     
       5  | 13:08.02 |    4:18.33   |       59102      |      78484     
       6  | 17:26.35 |    4:13.13   |       78485      |      97472     
       7  | 21:39.48 |    4:12.67   |       97473      |     116439     
       8  | 25:52.40 |    4:47.06   |      116440      |     137970     
       9  | 30:39.46 |    4:09.18   |      137971      |     156663     
      10  | 34:48.64 |    3:34.15   |      156664      |     172728     
      11  | 38:23.04 |    4:08.24   |      172729      |     191352     
      12  | 42:31.28 |    5:36.16   |      191353      |     216568     
      13  | 48:07.44 |    4:32.67   |      216569      |     237035     

Характеристики диапазона извлечения и сообщения об ошибках

Выбранный диапазон

     Имя файла M:\Русская Поп-музыка\Вася Пряников (lossless)\Вася Пряников - Разлейте русской водки по стаканам (2001)\Вася Пряников - Разлейте русской водки по стаканам.wav

     Пиковый уровень 100.0 %
     Качество диапазона 100.0 %
     CRC теста DF61D0A0
     CRC копии DF61D0A0
     Копирование... OK

Ошибок не произошло

 
AccurateRip: сводка
 
Трек  1  точное извлечение (доверие 1)  [F1AB8378]
Трек  2  точное извлечение (доверие 1)  [64D6CBF7]
Трек  3  точное извлечение (доверие 1)  [BAE8C910]
Трек  4  точное извлечение (доверие 1)  [E68A19A4]
Трек  5  точное извлечение (доверие 1)  [6B493137]
Трек  6  точное извлечение (доверие 1)  [237796BF]
Трек  7  точное извлечение (доверие 1)  [7D7D1E20]
Трек  8  точное извлечение (доверие 1)  [197A4910]
Трек  9  точное извлечение (доверие 1)  [E14AC879]
Трек 10  точное извлечение (доверие 1)  [F465EE56]
Трек 11  точное извлечение (доверие 1)  [B097D4F9]
Трек 12  точное извлечение (доверие 1)  [31DD4450]
Трек 13  точное извлечение (доверие 1)  [F70E0DA3]
 
Все треки извлечены точно

Конец отчёта
Данный материал из частной коллекции пользователя. Доступ открыт только для членов группы «Меломаны». Вы можете стать её участником! Для более подробной информации прочтите правила обмена. Также вы можете связаться с автором сообщения и обсудить детали обмена.

Страница 1 из 1

new_topic  reply_topic

Текущее время: 22-Сен 23:44
Часовой пояс: GMT + 4

m Сделано с любовью PR-CY.ru Каталог webplus.info