Вход на сайт

Имя:
Пароль:

· Забыли пароль?
logo
Портал Форум
Регистрация Вход


Статистика раздачи

Размер: 296 MB | Зарегистрирован: 9 лет | Торрент скачан: 2 раза
new_topic  reply_topic

  (Pop) Мяу - Ассорти (Miau - Assortii) - 2004, FLAC (image + .cue)

pic
Год выпуска: 2004
Страна: Эстония
Жанр: Pop
Номер #: TOP CD 1145 (TopTen)
Продолжительность: 0:41:07

Тип контента: альбом
Аудио кодек: FLAC
Тип рипа: (image + .cue)
Битрейт аудио: lossless

Треклист:
  1. Сладкая конфета
  2. Мяу мяу
  3. Горе
  4. Мяу тусовка
  5. Секрет
  6. Как Игорь Крутой
  7. Всё равно
  8. Уходи
  9. Руки
  10. Да да да
  11. Пойми
  12. Сладкая конфета (ремикс)

Код:

Exact Audio Copy V0.99 prebeta 5 from 4. May 2009

Отчёт EAC об извлечении, выполненном 29. октября 2011, 1:27

Miau / Ассорти

Дисковод: TSSTcorpCDDVDW SH-S223B   Adapter: 2  ID: 0

Режим чтения                 : Достоверность
Использование точного потока : Да
Отключение кэша аудио        : Да
Использование указателей C2  : Нет

Коррекция смещения при чтении                     : 6
Способность читать области Lead-in и Lead-out     : Нет
Заполнение пропущенных сэмплов тишиной            : Да
Удаление блоков с тишиной в начале и конце        : Нет
При вычислениях CRC использовались нулевые сэмплы : Да
Интерфейс                                         : Встроенный Win32-интерфейс для Win NT/2000

Выходной формат : Внутренние WAV-операции
Формат сэмплов  : 44.100 Гц; 16 бит; стерео

TOC извлечённого CD

     Трек |   Старт  | Длительность | Начальный сектор | Конечный сектор
    ---------------------------------------------------------------------
       1  |  0:00.00 |    3:06.53   |           0      |      14002     
       2  |  3:06.53 |    3:09.27   |       14003      |      28204     
       3  |  6:16.05 |    4:11.19   |       28205      |      47048     
       4  | 10:27.24 |    2:56.44   |       47049      |      60292     
       5  | 13:23.68 |    4:00.14   |       60293      |      78306     
       6  | 17:24.07 |    3:24.32   |       78307      |      93638     
       7  | 20:48.39 |    2:58.45   |       93639      |     107033     
       8  | 23:47.09 |    3:16.37   |      107034      |     121770     
       9  | 27:03.46 |    2:48.74   |      121771      |     134444     
      10  | 29:52.45 |    3:27.16   |      134445      |     149985     
      11  | 33:19.61 |    3:46.49   |      149986      |     166984     
      12  | 37:06.35 |    4:00.51   |      166985      |     185035     

Характеристики диапазона извлечения и сообщения об ошибках

Выбранный диапазон

     Имя файла M:\Эстонская музыка\Miau (lossless)\Miau - Ассорти (2004)\Miau - Ассорти.wav

     Пиковый уровень 100.0 %
     Качество диапазона 100.0 %
     CRC теста 766B4994
     CRC копии 766B4994
     Копирование... OK

Ошибок не произошло

 
AccurateRip: сводка
 
Трек  1  нет в базе данных
Трек  2  нет в базе данных
Трек  3  нет в базе данных
Трек  4  нет в базе данных
Трек  5  нет в базе данных
Трек  6  нет в базе данных
Трек  7  нет в базе данных
Трек  8  нет в базе данных
Трек  9  нет в базе данных
Трек 10  нет в базе данных
Трек 11  нет в базе данных
Трек 12  нет в базе данных
 
Ни одного трека нет в базе AccurateRip

Конец отчёта

Релиз: pic


Данный материал из частной коллекции пользователя и носит характер объявления. Если вас заинтересовала данная тема, вы можете связаться с автором сообщения и обсудить детали обмена. Для более подробной информации прочтите правила обмена.
Информация о группе здесь.

dimassamid как альбомчеГ?
Alex2GBулет, советую
эстонское "Ассорти"
Alex2GB тебе главному коллеру и не знать, стыдно
dimka007
dimassamid думаю этот альбом можно перенести в Русское зарубежье

Страница 1 из 1

new_topic  reply_topic

Текущее время: 23-Сен 00:46
Часовой пояс: GMT + 4

m Сделано с любовью PR-CY.ru Каталог webplus.info