Вход на сайт

Имя:
Пароль:

· Забыли пароль?
logo
Портал Форум
Регистрация Вход


new_topic  reply_topic

  (Disco) Fancy - Dance Superhits 1999, APE (image + .cue)

pic
Год выпуска: 1999
Страна: Europe
Жанр: Disco
Номер #: A Records A-6
Продолжительность: 70:04

Тип издания: сборник
Аудио кодек: APE
Тип рипа: (image + .cue)
Битрейт аудио: lossless

Треклист:

01. Slice Me Nice
02. Reaving Queen
03. Flame' s Of Love
04. Lady Of Ice
05. Chinese Eye' s
06. Love In Japan
07. Bolero ( Hold Me In You' r Arm' s Again )
08. All My Loving
09. Come Inside
10. After Midnight
11. I Don' t Want To Go
12. Colder Than Ice
13. Get You' r Kick' s
14. Pure Love
15. Slice Me Nice ( Remix )
16. Chinese Eye' s ( Remix )
17. Slice Me Nice / Chinese Eye' s ( Special Mix' 85 )

Код:

Exact Audio Copy V0.99 prebeta 5 from 4. May 2009

Отчёт EAC об извлечении, выполненном 1. ноября 2011, 1:37

Fancy / Dance  Super  Hits

Дисковод: PIONEER DVD-RW  DVR-110D   Adapter: 1  ID: 1

Режим чтения                 : Достоверность
Использование точного потока : Да
Отключение кэша аудио        : Да
Использование указателей C2  : Нет

Коррекция смещения при чтении                     : 48
Способность читать области Lead-in и Lead-out     : Нет
Заполнение пропущенных сэмплов тишиной            : Да
Удаление блоков с тишиной в начале и конце        : Нет
При вычислениях CRC использовались нулевые сэмплы : Да
Интерфейс                                         : Встроенный Win32-интерфейс для Win NT/2000

Выходной формат          : Monkey's Audio (без потерь)
Выбранный битрейт        : Extra High Lossless Compression
Качество                 : Высокий
Добавление ID3-тэга      : Нет
Утилита сжатия           : C:\Program Files (x86)\Monkey's Audio\MAC.exe
Дополнительные параметры : -w "Artist=%a" -w "Title=%t" -w "Album=%g" -w "Year=%y" -w "Track=%n" -w "Genre=%m" -h %s %d

TOC извлечённого CD

     Трек |   Старт  | Длительность | Начальный сектор | Конечный сектор
    ---------------------------------------------------------------------
       1  |  0:00.00 |    4:07.20   |           0      |      18544     
       2  |  4:07.20 |    4:22.64   |       18545      |      38258     
       3  |  8:30.09 |    3:11.49   |       38259      |      52632     
       4  | 11:41.58 |    4:37.71   |       52633      |      73478     
       5  | 16:19.54 |    3:52.63   |       73479      |      90941     
       6  | 20:12.42 |    3:30.74   |       90942      |     106765     
       7  | 23:43.41 |    4:06.25   |      106766      |     125240     
       8  | 27:49.66 |    1:59.25   |      125241      |     134190     
       9  | 29:49.16 |    5:01.28   |      134191      |     156793     
      10  | 34:50.44 |    4:39.27   |      156794      |     177745     
      11  | 39:29.71 |    4:08.29   |      177746      |     196374     
      12  | 43:38.25 |    5:05.63   |      196375      |     219312     
      13  | 48:44.13 |    5:34.12   |      219313      |     244374     
      14  | 54:18.25 |    3:23.38   |      244375      |     259637     
      15  | 57:41.63 |    4:07.37   |      259638      |     278199     
      16  | 61:49.25 |    3:52.62   |      278200      |     295661     
      17  | 65:42.12 |    4:22.00   |      295662      |     315311     

Характеристики диапазона извлечения и сообщения об ошибках

Выбранный диапазон

     Имя файла D:\Bit Torrent\Новая папка\Fancy - Dance  Super  Hits.wav

     Пиковый уровень 100.0 %
     Качество диапазона 100.0 %
     CRC теста ACE54A87
     CRC копии ACE54A87
     Копирование... OK

Ошибок не произошло

 
AccurateRip: сводка
 
Трек  1  точное извлечение (доверие 1)  [1C06517B]
Трек  2  точное извлечение (доверие 1)  [A415A735]
Трек  3  точное извлечение (доверие 1)  [9E681768]
Трек  4  точное извлечение (доверие 1)  [0B79B4C6]
Трек  5  точное извлечение (доверие 1)  [D9DC1E39]
Трек  6  точное извлечение (доверие 1)  [6E593B0F]
Трек  7  точное извлечение (доверие 1)  [A62F783D]
Трек  8  точное извлечение (доверие 1)  [42BC1F6A]
Трек  9  точное извлечение (доверие 1)  [E93F62E4]
Трек 10  точное извлечение (доверие 1)  [4AF985C2]
Трек 11  точное извлечение (доверие 1)  [EE7D6AE6]
Трек 12  точное извлечение (доверие 1)  [BB9C83AA]
Трек 13  точное извлечение (доверие 1)  [2F3D6E94]
Трек 14  точное извлечение (доверие 1)  [6F5094A2]
Трек 15  точное извлечение (доверие 1)  [3430BD2D]
Трек 16  точное извлечение (доверие 1)  [4AF1751B]
Трек 17  точное извлечение (доверие 1)  [41C49041]
 
Все треки извлечены точно

Конец отчёта

Страница 1 из 1

new_topic  reply_topic

Текущее время: 17-Июн 01:24
Часовой пояс: GMT + 4

m Сделано с любовью