Вход на сайт

Имя:
Пароль:

· Забыли пароль?
logo
Портал Форум
Регистрация Вход


new_topic  reply_topic

  (Pop) Kuumad Eesti Hitid 2004 (Горячие эстонские хиты 2004), FLAC (image + .cue)

pic
Год выпуска: 2004
Страна: Эстония
Жанр: Pop
Номер #: REC 4742115 000471 (Records 2000)
Продолжительность: 1:08:36

Тип издания: сборник
Аудио кодек: FLAC
Тип рипа: (image + .cue)
Битрейт аудио: lossless

Треклист:
  1. Cardinals & Zone - Turn The Tide [Video mix]
  2. Bläck Rokit - Itimees [Tambet remix 2004]
  3. Kadi Toom & Koit Toome - Laenatud päev [Hovery remix]
  4. Jüri Homenja - Su silmad on jää [Radio edit]
  5. Neiokõsõ - Tii
  6. Sunshine Company feat. Meie Mees - Orgia
  7. Hovery Covery - Ainult Sulle
  8. N-Euro - Oota mind sa [Aeromix 2004]
  9. B-Jeans - Varjude mäng
  10. Mari-Liis - Kellegi jaoks
  11. Anaconda - You Need Me
  12. Hell Can Wait - Everyday
  13. The Model - Reality
  14. White Label - Killud (Saladus jääb)
  15. Van Gogh - Get Up - It Could Be Your Last Day In Paradise
  16. Hannah - Never Be The Same [Pace & Arvid Germany Radio mix]
  17. Joy feat. Alari Kivisaar - Touch By Touch [Radio mix]
  18. Glow - All What Is Great
  19. Trinity feat. Caater - Never Ever
  20. Airi Ojamets - I Wanna Stay

Код:

Exact Audio Copy V0.99 prebeta 5 from 4. May 2009

Отчёт EAC об извлечении, выполненном 9. ноября 2011, 21:35

Various / Kuumad Eesti Hitid 2004

Дисковод: TSSTcorpCDDVDW SH-S223B   Adapter: 2  ID: 0

Режим чтения                 : Достоверность
Использование точного потока : Да
Отключение кэша аудио        : Да
Использование указателей C2  : Нет

Коррекция смещения при чтении                     : 6
Способность читать области Lead-in и Lead-out     : Нет
Заполнение пропущенных сэмплов тишиной            : Да
Удаление блоков с тишиной в начале и конце        : Нет
При вычислениях CRC использовались нулевые сэмплы : Да
Интерфейс                                         : Встроенный Win32-интерфейс для Win NT/2000

Выходной формат : Внутренние WAV-операции
Формат сэмплов  : 44.100 Гц; 16 бит; стерео

TOC извлечённого CD

     Трек |   Старт  | Длительность | Начальный сектор | Конечный сектор
    ---------------------------------------------------------------------
       1  |  0:00.00 |    3:37.37   |           0      |      16311     
       2  |  3:37.37 |    3:12.63   |       16312      |      30774     
       3  |  6:50.25 |    3:39.50   |       30775      |      47249     
       4  | 10:30.00 |    2:54.61   |       47250      |      60360     
       5  | 13:24.61 |    2:57.14   |       60361      |      73649     
       6  | 16:22.00 |    3:05.17   |       73650      |      87541     
       7  | 19:27.17 |    3:29.61   |       87542      |     103277     
       8  | 22:57.03 |    3:18.28   |      103278      |     118155     
       9  | 26:15.31 |    3:51.65   |      118156      |     135545     
      10  | 30:07.21 |    4:08.62   |      135546      |     154207     
      11  | 34:16.08 |    4:35.69   |      154208      |     174901     
      12  | 38:52.02 |    3:15.38   |      174902      |     189564     
      13  | 42:07.40 |    3:19.73   |      189565      |     204562     
      14  | 45:27.38 |    4:04.68   |      204563      |     222930     
      15  | 49:32.31 |    2:28.47   |      222931      |     234077     
      16  | 52:01.03 |    3:33.46   |      234078      |     250098     
      17  | 55:34.49 |    3:47.31   |      250099      |     267154     
      18  | 59:22.05 |    2:52.66   |      267155      |     280120     
      19  | 62:14.71 |    3:31.69   |      280121      |     296014     
      20  | 65:46.65 |    2:49.37   |      296015      |     308726     

Характеристики диапазона извлечения и сообщения об ошибках

Выбранный диапазон

     Имя файла M:\Эстонская музыка\Сборники\Kuumad Eesti Hitid 2004\Kuumad Eesti Hitid 2004.wav

     Пиковый уровень 100.0 %
     Качество диапазона 100.0 %
     CRC теста 3F623097
     CRC копии 3F623097
     Копирование... OK

Ошибок не произошло

 
AccurateRip: сводка
 
Трек  1  нет в базе данных
Трек  2  нет в базе данных
Трек  3  нет в базе данных
Трек  4  нет в базе данных
Трек  5  нет в базе данных
Трек  6  нет в базе данных
Трек  7  нет в базе данных
Трек  8  нет в базе данных
Трек  9  нет в базе данных
Трек 10  нет в базе данных
Трек 11  нет в базе данных
Трек 12  нет в базе данных
Трек 13  нет в базе данных
Трек 14  нет в базе данных
Трек 15  нет в базе данных
Трек 16  нет в базе данных
Трек 17  нет в базе данных
Трек 18  нет в базе данных
Трек 19  нет в базе данных
Трек 20  нет в базе данных
 
Ни одного трека нет в базе AccurateRip

Конец отчёта
pic pic pic pic

Примечание: в 2003 году сборник не выпускался
Релиз: pic


Страница 1 из 1

new_topic  reply_topic

Текущее время: 26-Фев 04:05
Часовой пояс: GMT + 4

m Сделано с любовью