Вход на сайт

Имя:
Пароль:

· Забыли пароль?
logo
Портал Форум
Регистрация Вход


new_topic  reply_topic

  (Disco) Gina T. – Tokyo By Night 1990, FLAC (image + .cue)

pic
Год выпуска: 1990
Страна: Германия
Жанр: Disco
Номер #: 130-07-346
Продолжительность: ~ 14 минут

Тип издания: сингл
Аудио кодек: FLAC
Тип рипа: (image + .cue)
Битрейт аудио: lossless

Треклист:

01. Tokyo By Night (The Geisha Groove Mix)
02. Tokyo By Night (Instrumental Version)
03. Tokyo By Night (Single Edit)

Код:

Exact Audio Copy V0.99 prebeta 5 from 4. May 2009

Отчёт EAC об извлечении, выполненном 17. ноября 2011, 23:20

Gina T. / Tokyo By Night

Дисковод: PLEXTOR DVDR   PX-800A   Adapter: 0  ID: 0

Режим чтения                 : Достоверность
Использование точного потока : Да
Отключение кэша аудио        : Да
Использование указателей C2  : Нет

Коррекция смещения при чтении                     : 48
Способность читать области Lead-in и Lead-out     : Нет
Заполнение пропущенных сэмплов тишиной            : Да
Удаление блоков с тишиной в начале и конце        : Нет
При вычислениях CRC использовались нулевые сэмплы : Да
Интерфейс                                         : Установленный внешний ASPI-интерфейс

Выходной формат : Внутренние WAV-операции
Формат сэмплов  : 44.100 Гц; 16 бит; стерео

TOC извлечённого CD

     Трек |   Старт  | Длительность | Начальный сектор | Конечный сектор
    ---------------------------------------------------------------------
       1  |  0:00.00 |    5:46.25   |           0      |      25974     
       2  |  5:46.25 |    4:08.50   |       25975      |      44624     
       3  |  9:55.00 |    3:44.07   |       44625      |      61431     

Характеристики диапазона извлечения и сообщения об ошибках

Выбранный диапазон

     Имя файла C:\Temp\Образы\Gina T. - Tokyo By Night.wav

     Пиковый уровень 100.0 %
     Качество диапазона 100.0 %
     CRC теста A0DF0D36
     CRC копии A0DF0D36
     Копирование... OK

Ошибок не произошло

 
AccurateRip: сводка
 
Трек  1  нет в базе данных
Трек  2  нет в базе данных
Трек  3  нет в базе данных
 
Ни одного трека нет в базе AccurateRip

Конец отчёта

Страница 1 из 1

new_topic  reply_topic

Текущее время: 22-Июн 21:47
Часовой пояс: GMT + 4

m Сделано с любовью PR-CY.ru Каталог webplus.info