Вход на сайт

Имя:
Пароль:

· Забыли пароль?
logo
Портал Форум
Регистрация Вход


new_topic  reply_topic

  (Disco) Gina T. – Tonight's So Cold 1991, FLAC (image + .cue)

pic
Год выпуска: 1991
Страна: Германия
Жанр: Disco
Номер #: 130-07-392
Продолжительность: ~ 15 минут

Тип издания: сингл
Аудио кодек: FLAC
Тип рипа: (image + .cue)
Битрейт аудио: lossless

Треклист:

01. Tonight's So Cold (Inside My Room)
02. Tonight's So Cold (Inside My Room) (Instrumental)
03. In My Fantasy

Код:

Exact Audio Copy V0.99 prebeta 5 from 4. May 2009

Отчёт EAC об извлечении, выполненном 17. ноября 2011, 23:41

Gina T. / Tonight's So Cold

Дисковод: PLEXTOR DVDR   PX-800A   Adapter: 0  ID: 0

Режим чтения                 : Достоверность
Использование точного потока : Да
Отключение кэша аудио        : Да
Использование указателей C2  : Нет

Коррекция смещения при чтении                     : 48
Способность читать области Lead-in и Lead-out     : Нет
Заполнение пропущенных сэмплов тишиной            : Да
Удаление блоков с тишиной в начале и конце        : Нет
При вычислениях CRC использовались нулевые сэмплы : Да
Интерфейс                                         : Установленный внешний ASPI-интерфейс

Выходной формат : Внутренние WAV-операции
Формат сэмплов  : 44.100 Гц; 16 бит; стерео

TOC извлечённого CD

     Трек |   Старт  | Длительность | Начальный сектор | Конечный сектор
    ---------------------------------------------------------------------
       1  |  0:00.00 |    3:47.00   |           0      |      17024     
       2  |  3:47.00 |    3:47.00   |       17025      |      34049     
       3  |  7:34.00 |    6:45.32   |       34050      |      64456     

Характеристики диапазона извлечения и сообщения об ошибках

Выбранный диапазон

     Имя файла C:\Temp\Образы\Gina T. - Tonight's So Cold.wav

     Пиковый уровень 99.1 %
     Качество диапазона 100.0 %
     CRC теста CF75E3CD
     CRC копии CF75E3CD
     Копирование... OK

Ошибок не произошло

 
AccurateRip: сводка
 
Трек  1  нет в базе данных
Трек  2  нет в базе данных
Трек  3  нет в базе данных
 
Ни одного трека нет в базе AccurateRip

Конец отчёта

Страница 1 из 1

new_topic  reply_topic

Текущее время: 22-Июн 22:06
Часовой пояс: GMT + 4

m Сделано с любовью PR-CY.ru Каталог webplus.info