Вход на сайт

Имя:
Пароль:

· Забыли пароль?
logo
Портал Форум
Регистрация Вход


new_topic  reply_topic

  (Disco) Gina T. – Hey Angel 1990, FLAC (image + .cue)

pic
Год выпуска: 1990
Страна: Германия
Жанр: Disco
Номер #: 130.07.363
Продолжительность: ~ 14 минут

Тип издания: сингл
Аудио кодек: FLAC
Тип рипа: (image + .cue)
Битрейт аудио: lossless

Треклист:

01. Hey Angel (Flighing Angel Mix)
02. Hey Angel (Single Edit)
03. Hey Angel (Instrumental Version)

Код:

Exact Audio Copy V0.99 prebeta 5 from 4. May 2009

Отчёт EAC об извлечении, выполненном 18. ноября 2011, 1:39

Gina T. / Hey Angel

Дисковод: PLEXTOR DVDR   PX-800A   Adapter: 0  ID: 0

Режим чтения                 : Достоверность
Использование точного потока : Да
Отключение кэша аудио        : Да
Использование указателей C2  : Нет

Коррекция смещения при чтении                     : 48
Способность читать области Lead-in и Lead-out     : Нет
Заполнение пропущенных сэмплов тишиной            : Да
Удаление блоков с тишиной в начале и конце        : Нет
При вычислениях CRC использовались нулевые сэмплы : Да
Интерфейс                                         : Установленный внешний ASPI-интерфейс

Выходной формат : Внутренние WAV-операции
Формат сэмплов  : 44.100 Гц; 16 бит; стерео

TOC извлечённого CD

     Трек |   Старт  | Длительность | Начальный сектор | Конечный сектор
    ---------------------------------------------------------------------
       1  |  0:00.00 |    6:02.00   |           0      |      27149     
       2  |  6:02.00 |    3:46.00   |       27150      |      44099     
       3  |  9:48.00 |    3:45.25   |       44100      |      60999     

Характеристики диапазона извлечения и сообщения об ошибках

Выбранный диапазон

     Имя файла C:\Temp\Образы\Gina T. - Hey Angel.wav

     Пиковый уровень 100.0 %
     Качество диапазона 99.9 %
     CRC теста 695832AC
     CRC копии 695832AC
     Копирование... OK

Ошибок не произошло

 
AccurateRip: сводка
 
Трек  1  нет в базе данных
Трек  2  нет в базе данных
Трек  3  нет в базе данных
 
Ни одного трека нет в базе AccurateRip

Конец отчёта

Страница 1 из 1

new_topic  reply_topic

Текущее время: 22-Июн 20:59
Часовой пояс: GMT + 4

m Сделано с любовью PR-CY.ru Каталог webplus.info