Вход на сайт

Имя:
Пароль:

· Забыли пароль?
logo
Портал Форум
Регистрация Вход


new_topic  reply_topic

  (EuroDisco) Modern Talking - Universe ( Special Russian Version ) 2003, APE (image + .cue)

pic
Год выпуска: 2003
Страна: Germany
Производитель: Russia
Жанр: EuroDisco
Номер #: Sony BMG Music Entertainment 82876 51709 2
Продолжительность: 44:23

Тип издания: альбом
Аудио кодек: APE
Тип рипа: (image + .cue)
Битрейт аудио: lossless

Треклист:

01. TV Makes The Superstar
02. I' m No Rockefeller
03. Mystery
04. Everybody Need' s Somebody
05. Heart Of An Angel
06. Who Will Be There
07. Knocking On My Door
08. Should I, Would I, Could I
09. Blackbird
10. Life Is Too Short
11. Nothing But The Truth
12. Superstar

Код:

Exact Audio Copy V0.99 prebeta 5 from 4. May 2009

Отчёт EAC об извлечении, выполненном 22. августа 2011, 0:04

Modern  Talking / Universe  ( Special  Russian  Version )

Дисковод: Optiarc DVD RW AD-7263S   Adapter: 2  ID: 0

Режим чтения                 : Достоверность
Использование точного потока : Да
Отключение кэша аудио        : Да
Использование указателей C2  : Нет

Коррекция смещения при чтении                     : 48
Способность читать области Lead-in и Lead-out     : Нет
Заполнение пропущенных сэмплов тишиной            : Да
Удаление блоков с тишиной в начале и конце        : Нет
При вычислениях CRC использовались нулевые сэмплы : Да
Интерфейс                                         : Встроенный Win32-интерфейс для Win NT/2000

Выходной формат          : Monkey's Audio (без потерь)
Выбранный битрейт        : Extra High Lossless Compression
Качество                 : Высокий
Добавление ID3-тэга      : Нет
Утилита сжатия           : E:\Program Files\Monkey's Audio\MAC.exe
Дополнительные параметры : -w "Artist=%a" -w "Title=%t" -w "Album=%g" -w "Year=%y" -w "Track=%n" -w "Genre=%m" -h %s %d

TOC извлечённого CD

     Трек |   Старт  | Длительность | Начальный сектор | Конечный сектор
    ---------------------------------------------------------------------
       1  |  0:00.00 |    3:45.30   |           0      |      16904     
       2  |  3:45.30 |    3:40.33   |       16905      |      33437     
       3  |  7:25.63 |    3:33.15   |       33438      |      49427     
       4  | 10:59.03 |    4:10.37   |       49428      |      68214     
       5  | 15:09.40 |    4:09.03   |       68215      |      86892     
       6  | 19:18.43 |    3:47.55   |       86893      |     103972     
       7  | 23:06.23 |    3:36.65   |      103973      |     120237     
       8  | 26:43.13 |    3:46.45   |      120238      |     137232     
       9  | 30:29.58 |    3:19.07   |      137233      |     152164     
      10  | 33:48.65 |    3:33.23   |      152165      |     168162     
      11  | 37:22.13 |    3:21.12   |      168163      |     183249     
      12  | 40:43.25 |    3:40.50   |      183250      |     199799     

Характеристики диапазона извлечения и сообщения об ошибках

Выбранный диапазон

     Имя файла D:\Bit Torrent\Новая папка\Modern  Talking - Universe  ( Special  Russian  Version ).wav

     Пиковый уровень 97.7 %
     Качество диапазона 100.0 %
     CRC теста F2AEC036
     CRC копии F2AEC036
     Копирование... OK

Ошибок не произошло

 
AccurateRip: сводка
 
Трек  1  точное извлечение (доверие 2)  [4373E4B7]
Трек  2  точное извлечение (доверие 3)  [EC2C57AD]
Трек  3  точное извлечение (доверие 3)  [55651478]
Трек  4  точное извлечение (доверие 3)  [BC514786]
Трек  5  точное извлечение (доверие 3)  [6C59CE72]
Трек  6  точное извлечение (доверие 2)  [064E3CE3]
Трек  7  точное извлечение (доверие 2)  [99C9C7D5]
Трек  8  точное извлечение (доверие 2)  [6A64CE4D]
Трек  9  точное извлечение (доверие 2)  [E65960A8]
Трек 10  точное извлечение (доверие 2)  [435608B6]
Трек 11  точное извлечение (доверие 2)  [5A61D705]
Трек 12  точное извлечение (доверие 2)  [2DB2A4D8]
 
Все треки извлечены точно

Конец отчёта

Страница 1 из 1

new_topic  reply_topic

Текущее время: 17-Июн 01:02
Часовой пояс: GMT + 4

m Сделано с любовью