Вход на сайт

Имя:
Пароль:

· Забыли пароль?
logo
Портал Форум
Регистрация Вход


new_topic  reply_topic

  (EuroDisco) Modern Talking - Victory ( Special Russian Version ) 2002, APE (image + .cue)

pic
Год выпуска: 2002
Страна: Germany
Производитель: Russia
Жанр: EuroDisco
Номер #: Sony BMG Music Entertainment 74321 93466 2
Продолжительность: 55:20

Тип издания: альбом
Аудио кодек: APE
Тип рипа: (image + .cue)
Битрейт аудио: lossless

Треклист:

01. Ready For The Victory
02. I' m Gonna Be Strong
03. Don' t Make Me Blue
04. Juliet
05. Higher Than Heaven
06. You' re Not Lisa
07. When The Sky Rained Fire
08. Summer In December
09. 10 Second' s To Countdown
10. Love To Love You
11. Blue Eyed Coloured Girl
12. We Are Children Of The World
13. Mrs. Robota
14. If I ...
15. Will Love You Like I Do

Код:

Exact Audio Copy V0.99 prebeta 5 from 4. May 2009

Отчёт EAC об извлечении, выполненном 22. августа 2011, 0:37

Modern  Talking / Victory  ( Special  Russian  Version )

Дисковод: Optiarc DVD RW AD-7263S   Adapter: 2  ID: 0

Режим чтения                 : Достоверность
Использование точного потока : Да
Отключение кэша аудио        : Да
Использование указателей C2  : Нет

Коррекция смещения при чтении                     : 48
Способность читать области Lead-in и Lead-out     : Нет
Заполнение пропущенных сэмплов тишиной            : Да
Удаление блоков с тишиной в начале и конце        : Нет
При вычислениях CRC использовались нулевые сэмплы : Да
Интерфейс                                         : Встроенный Win32-интерфейс для Win NT/2000

Выходной формат          : Monkey's Audio (без потерь)
Выбранный битрейт        : Extra High Lossless Compression
Качество                 : Высокий
Добавление ID3-тэга      : Нет
Утилита сжатия           : E:\Program Files\Monkey's Audio\MAC.exe
Дополнительные параметры : -w "Artist=%a" -w "Title=%t" -w "Album=%g" -w "Year=%y" -w "Track=%n" -w "Genre=%m" -h %s %d

TOC извлечённого CD

     Трек |   Старт  | Длительность | Начальный сектор | Конечный сектор
    ---------------------------------------------------------------------
       1  |  0:00.00 |    3:32.50   |           0      |      15949     
       2  |  3:32.50 |    3:31.25   |       15950      |      31799     
       3  |  7:04.00 |    3:53.58   |       31800      |      49332     
       4  | 10:57.58 |    3:39.15   |       49333      |      65772     
       5  | 14:36.73 |    3:34.52   |       65773      |      81874     
       6  | 18:11.50 |    3:07.00   |       81875      |      95899     
       7  | 21:18.50 |    3:42.45   |       95900      |     112594     
       8  | 25:01.20 |    3:36.45   |      112595      |     128839     
       9  | 28:37.65 |    3:21.50   |      128840      |     143964     
      10  | 31:59.40 |    3:30.45   |      143965      |     159759     
      11  | 35:30.10 |    4:13.33   |      159760      |     178767     
      12  | 39:43.43 |    3:16.57   |      178768      |     193524     
      13  | 43:00.25 |    3:28.08   |      193525      |     209132     
      14  | 46:28.33 |    4:51.17   |      209133      |     230974     
      15  | 51:19.50 |    4:01.25   |      230975      |     249074     

Характеристики диапазона извлечения и сообщения об ошибках

Выбранный диапазон

     Имя файла D:\Bit Torrent\Новая папка\Modern  Talking - Victory  ( Special  Russian  Version ).wav

     Пиковый уровень 100.0 %
     Качество диапазона 100.0 %
     CRC теста 97596362
     CRC копии 97596362
     Копирование... OK

Ошибок не произошло

 
AccurateRip: сводка
 
Трек  1  точное извлечение (доверие 2)  [42E644B9]
Трек  2  точное извлечение (доверие 2)  [5989566A]
Трек  3  точное извлечение (доверие 2)  [23FFA3B3]
Трек  4  точное извлечение (доверие 2)  [5F9792DE]
Трек  5  точное извлечение (доверие 2)  [A5F2A188]
Трек  6  точное извлечение (доверие 2)  [42BA6D9D]
Трек  7  точное извлечение (доверие 2)  [1C92CAFA]
Трек  8  точное извлечение (доверие 2)  [32F3E7E7]
Трек  9  точное извлечение (доверие 2)  [E20A14FE]
Трек 10  точное извлечение (доверие 2)  [30554EF2]
Трек 11  точное извлечение (доверие 2)  [4D5C66FF]
Трек 12  точное извлечение (доверие 2)  [E9ADB6DC]
Трек 13  точное извлечение (доверие 2)  [3156A3B1]
Трек 14  точное извлечение (доверие 2)  [332D292D]
Трек 15  точное извлечение (доверие 2)  [9194CD62]
 
Все треки извлечены точно

Конец отчёта

Страница 1 из 1

new_topic  reply_topic

Текущее время: 22-Июн 20:57
Часовой пояс: GMT + 4

m Сделано с любовью PR-CY.ru Каталог webplus.info