Вход на сайт

Имя:
Пароль:

· Забыли пароль?
logo
Портал Форум
Регистрация Вход


new_topic  reply_topic

  (EuroDisco) Modern Talking - Year Of The Dragon ( Special Russian Version ) 2000, APE (image + .cue)

pic
Год выпуска: 2000
Страна: Germany
Производитель: Russia
Жанр: EuroDisco
Номер #: Sony BMG Music Entertainment 74321 75141 - 2
Продолжительность: 72:54

Тип издания: альбом
Аудио кодек: APE
Тип рипа: (image + .cue)
Битрейт аудио: lossless

Треклист:

01. China In Her Eye' s ( Album Version )
02. Don' t Take Away My Heart
03. It' s You' r Smile
04. Cosmic Girl
05. After You' r Love Is Gone
06. Girl Out Of My Dream' s
07. My Lonely Girl
08. No Face No Name No Number
09. Can' t Let You Go
10. Part Time Lover
11. Time Is On My Side
12. I' ll Never Fall In Love Again
13. Avec Toi
14. I' m Not Guilty
15. Fight For The Right Love
16. Walking In The Rain Of Paris
17. Fly To The Moon
18. Love Is Forever
19. China In Her Eye' s ( Featuring Eric Singleton )

Код:

Exact Audio Copy V0.99 prebeta 5 from 4. May 2009

Отчёт EAC об извлечении, выполненном 22. августа 2011, 1:57

Modern  Talking / Year  Of  The  Dragon  ( Special  Russian  Version )

Дисковод: Optiarc DVD RW AD-7263S   Adapter: 2  ID: 0

Режим чтения                 : Достоверность
Использование точного потока : Да
Отключение кэша аудио        : Да
Использование указателей C2  : Нет

Коррекция смещения при чтении                     : 48
Способность читать области Lead-in и Lead-out     : Нет
Заполнение пропущенных сэмплов тишиной            : Да
Удаление блоков с тишиной в начале и конце        : Нет
При вычислениях CRC использовались нулевые сэмплы : Да
Интерфейс                                         : Встроенный Win32-интерфейс для Win NT/2000

Выходной формат          : Monkey's Audio (без потерь)
Выбранный битрейт        : Extra High Lossless Compression
Качество                 : Высокий
Добавление ID3-тэга      : Нет
Утилита сжатия           : E:\Program Files\Monkey's Audio\MAC.exe
Дополнительные параметры : -w "Artist=%a" -w "Title=%t" -w "Album=%g" -w "Year=%y" -w "Track=%n" -w "Genre=%m" -h %s %d

TOC извлечённого CD

     Трек |   Старт  | Длительность | Начальный сектор | Конечный сектор
    ---------------------------------------------------------------------
       1  |  0:00.00 |    4:27.00   |           0      |      20024     
       2  |  4:27.00 |    3:40.00   |       20025      |      36524     
       3  |  8:07.00 |    3:34.00   |       36525      |      52574     
       4  | 11:41.00 |    3:41.00   |       52575      |      69149     
       5  | 15:22.00 |    3:44.00   |       69150      |      85949     
       6  | 19:06.00 |    3:58.00   |       85950      |     103799     
       7  | 23:04.00 |    4:02.00   |      103800      |     121949     
       8  | 27:06.00 |    4:00.00   |      121950      |     139949     
       9  | 31:06.00 |    4:23.00   |      139950      |     159674     
      10  | 35:29.00 |    3:12.00   |      159675      |     174074     
      11  | 38:41.00 |    3:39.00   |      174075      |     190499     
      12  | 42:20.00 |    4:41.00   |      190500      |     211574     
      13  | 47:01.00 |    3:55.00   |      211575      |     229199     
      14  | 50:56.00 |    3:39.00   |      229200      |     245624     
      15  | 54:35.00 |    3:44.00   |      245625      |     262424     
      16  | 58:19.00 |    3:44.00   |      262425      |     279224     
      17  | 62:03.00 |    3:36.00   |      279225      |     295424     
      18  | 65:39.00 |    3:27.00   |      295425      |     310949     
      19  | 69:06.00 |    3:49.00   |      310950      |     328124     

Характеристики диапазона извлечения и сообщения об ошибках

Выбранный диапазон

     Имя файла D:\Bit Torrent\Modern Talking - Full Discography (lossless)\Albums  ( Special  Russian  Version )\Modern  Talking - Year  Of  The  Dragon  ( Special  Russian  Version  74321 75141 - 2 )\Modern  Talking - Year  Of  The  Dragon.wav

     Пиковый уровень 100.0 %
     Качество диапазона 100.0 %
     CRC теста 27E47935
     CRC копии 27E47935
     Копирование... OK

Ошибок не произошло

 
AccurateRip: сводка
 
Трек  1  точное извлечение (доверие 3)  [66C6343C]
Трек  2  точное извлечение (доверие 3)  [90E65271]
Трек  3  точное извлечение (доверие 3)  [DEA92590]
Трек  4  точное извлечение (доверие 3)  [0E6D049B]
Трек  5  точное извлечение (доверие 3)  [66BD37F5]
Трек  6  точное извлечение (доверие 3)  [2F708958]
Трек  7  точное извлечение (доверие 3)  [64255BFD]
Трек  8  точное извлечение (доверие 3)  [37AE1D79]
Трек  9  точное извлечение (доверие 3)  [37C7DA77]
Трек 10  точное извлечение (доверие 3)  [DA602BA9]
Трек 11  точное извлечение (доверие 3)  [09233FBE]
Трек 12  точное извлечение (доверие 3)  [CF070F1F]
Трек 13  точное извлечение (доверие 3)  [36074F55]
Трек 14  точное извлечение (доверие 3)  [4339A719]
Трек 15  точное извлечение (доверие 3)  [48F8B919]
Трек 16  точное извлечение (доверие 3)  [9A56BB1E]
Трек 17  точное извлечение (доверие 3)  [27437502]
Трек 18  точное извлечение (доверие 3)  [7EEC5963]
Трек 19  точное извлечение (доверие 3)  [1BE15A70]
 
Все треки извлечены точно

Конец отчёта

Страница 1 из 1

new_topic  reply_topic

Текущее время: 22-Июн 21:57
Часовой пояс: GMT + 4

m Сделано с любовью PR-CY.ru Каталог webplus.info