Вход на сайт

Имя:
Пароль:

· Забыли пароль?
logo
Портал Форум
Регистрация Вход


new_topic  reply_topic

  (Disco, Synth-Pop) Angie Gold - NRG Diva - 2012, FLAC (image + .cue)

pic
Год выпуска: 2012
Производитель: Великобритания
Жанр: Disco, Synth-Pop, Dance
Номер #: CDKOPY191 (Clone Records)
Продолжительность: 1:19:17

Тип издания: альбом
Аудио кодек: FLAC
Тип рипа: (image + .cue)
Битрейт аудио: lossless

Треклист:

  1. You Think You're a Man (Divine Diva Mix) (06:14)
  2. Deliverance (Taboo Logik New York City Boy Mix) (04:07)
  3. I Dreamed a Dream (06:00)
  4. Resurrection (07:11)
  5. Don't Cry For Me Argentina (08:37)
  6. Fighting For Our Lives (Andreas Cyberspace Mix) (05:39)
  7. Kiss The Rain (07:20)
  8. Angel Of Mine (07:48)
  9. Eat You Up (Original 12" Mix) (06:40)
  10. Applause (Original 12" Mix) (09:37)
  11. What Am I Gonna Do? (02:58)
  12. You'll See (06:38)

Код:

Exact Audio Copy V0.99 prebeta 4 from 23. January 2008

Отчёт EAC об извлечении, выполненном 5. апреля 2012, 16:57

Angie Gold / NRG Diva

Дисковод: TSSTcorpCDDVDW SH-S223B   Adapter: 2  ID: 0

Режим чтения                 : Достоверность
Использование точного потока : Да
Отключение кэша аудио        : Да
Использование указателей C2  : Нет

Коррекция смещения при чтении                     : 6
Способность читать области Lead-in и Lead-out     : Нет
Заполнение пропущенных сэмплов тишиной            : Да
Удаление блоков с тишиной в начале и конце        : Нет
При вычислениях CRC использовались нулевые сэмплы : Да
Интерфейс                                         : Встроенный Win32-интерфейс для Win NT/2000

Выходной формат : Внутренние WAV-операции
Формат сэмплов  : 44.100 Гц; 16 бит; стерео

TOC извлечённого CD

     Трек |   Старт  | Длительность | Начальный сектор | Конечный сектор
    ---------------------------------------------------------------------
       1  |  0:00.00 |    6:16.74   |           0      |      28273     
       2  |  6:16.74 |    4:09.60   |       28274      |      47008     
       3  | 10:26.59 |    6:02.09   |       47009      |      74167     
       4  | 16:28.68 |    7:13.42   |       74168      |     106684     
       5  | 23:42.35 |    8:39.50   |      106685      |     145659     
       6  | 32:22.10 |    5:41.41   |      145660      |     171275     
       7  | 38:03.51 |    7:22.40   |      171276      |     204465     
       8  | 45:26.16 |    7:50.18   |      204466      |     239733     
       9  | 53:16.34 |    6:42.56   |      239734      |     269939     
      10  | 59:59.15 |    9:39.30   |      269940      |     313394     
      11  | 69:38.45 |    3:00.45   |      313395      |     326939     
      12  | 72:39.15 |    6:38.47   |      326940      |     356836     

Характеристики диапазона извлечения и сообщения об ошибках

Выбранный диапазон

     Имя файла M:\SpaceSynth\Angie Gold (lossless)\Angie Gold - NRG Diva (2012)\Angie Gold - NRG Diva.wav

     Пиковый уровень 99.7 %
     Качество диапазона 99.9 %
     CRC теста BF0CF4B9
     CRC копии BF0CF4B9
     Копирование... OK

Ошибок не произошло

 
AccurateRip: сводка
 
Трек  1  нет в базе данных
Трек  2  нет в базе данных
Трек  3  нет в базе данных
Трек  4  нет в базе данных
Трек  5  нет в базе данных
Трек  6  нет в базе данных
Трек  7  нет в базе данных
Трек  8  нет в базе данных
Трек  9  нет в базе данных
Трек 10  нет в базе данных
Трек 11  нет в базе данных
Трек 12  нет в базе данных
 
Ни одного трека нет в базе AccurateRip

Конец отчёта

Доп. информация: Послушать мегамикс к альбому

Релиз: pic
Великолепный альбом! Личная оценка: 5+++


 

SpaceSynth миксы от Cyber Space (треки 6 и 16)
 

В цифровом релизе на 5 треков больше. Скачать бесплатно его можно здесь:
http://muviteam.com/forum/viewtopic.php?t=11023
dimassamid сида в студию, будем заценивать этот шедевр
Мегамикс к альбому:
http://soundcloud.com/laserbeatfm/dj-isareltech-angie-gold-mix
спасибо

dimassamid
спасибо
and1965 вам в кассу
Открыто для участников группы "Меломаны"

Страница 1 из 1

new_topic  reply_topic

Текущее время: 22-Июн 21:37
Часовой пояс: GMT + 4

m Сделано с любовью PR-CY.ru Каталог webplus.info