Вход на сайт

Имя:
Пароль:

· Забыли пароль?
logo
Портал Форум
Регистрация Вход


Статистика раздачи

Размер: 367 MB | Зарегистрирован: 8 лет 11 месяцев | Торрент скачан: 0 раз
new_topic  reply_topic

  (Pop) Stella - Я в это верю 2003, FLAC (image + .cue)

pic
Год выпуска: 2003
Страна: Германия
Производитель: Германия
Жанр: Pop
Номер #: STCD 052003 (Stella Company)
Продолжительность: ~ 54 минуты


Тип издания: альбом
Аудио кодек: FLAC
Тип рипа: (image + .cue)
Битрейт аудио: lossless


Треклист:

01. Just you and me
02. Не в первый раз
03. Майский ливень
04. Он не вернется
05. Забудь
06. Уходи
07. Sexy
08. Мама
09. Лето
10. Я в это верю
11. Давай поговорим
12. Майский ливень (Remix)

Код:

Exact Audio Copy V0.99 prebeta 5 from 4. May 2009

Отчёт EAC об извлечении, выполненном 29. сентября 2012, 19:22

Stella / Я в это верю

Дисковод: PLEXTOR DVDR   PX-800A   Adapter: 0  ID: 0

Режим чтения                 : Достоверность
Использование точного потока : Да
Отключение кэша аудио        : Да
Использование указателей C2  : Нет

Коррекция смещения при чтении                     : 48
Способность читать области Lead-in и Lead-out     : Нет
Заполнение пропущенных сэмплов тишиной            : Да
Удаление блоков с тишиной в начале и конце        : Нет
При вычислениях CRC использовались нулевые сэмплы : Да
Интерфейс                                         : Встроенный Win32-интерфейс для Win NT/2000

Выходной формат : Внутренние WAV-операции
Формат сэмплов  : 44.100 Гц; 16 бит; стерео

TOC извлечённого CD

     Трек |   Старт  | Длительность | Начальный сектор | Конечный сектор
    ---------------------------------------------------------------------
       1  |  0:00.00 |    2:46.44   |           0      |      12493     
       2  |  2:46.44 |    5:29.52   |       12494      |      37220     
       3  |  8:16.21 |    4:50.47   |       37221      |      59017     
       4  | 13:06.68 |    6:07.24   |       59018      |      86566     
       5  | 19:14.17 |    3:54.06   |       86567      |     104122     
       6  | 23:08.23 |    3:40.28   |      104123      |     120650     
       7  | 26:48.51 |    3:41.22   |      120651      |     137247     
       8  | 30:29.73 |    5:20.26   |      137248      |     161273     
       9  | 35:50.24 |    4:18.67   |      161274      |     180690     
      10  | 40:09.16 |    4:43.00   |      180691      |     201915     
      11  | 44:52.16 |    3:23.46   |      201916      |     217186     
      12  | 48:15.62 |    5:41.20   |      217187      |     242781     

Характеристики диапазона извлечения и сообщения об ошибках

Выбранный диапазон

     Имя файла C:\Temp\Образы\Stella - Я в это верю.wav

     Пиковый уровень 98.8 %
     Качество диапазона 99.9 %
     CRC теста B6CD567F
     CRC копии B6CD567F
     Копирование... OK

Ошибок не произошло

 
AccurateRip: сводка
 
Трек  1  нет в базе данных
Трек  2  нет в базе данных
Трек  3  нет в базе данных
Трек  4  нет в базе данных
Трек  5  нет в базе данных
Трек  6  нет в базе данных
Трек  7  нет в базе данных
Трек  8  нет в базе данных
Трек  9  нет в базе данных
Трек 10  нет в базе данных
Трек 11  нет в базе данных
Трек 12  нет в базе данных
 
Ни одного трека нет в базе AccurateRip

Конец отчёта
Данный материал из частной коллекции пользователя. Доступ открыт только для членов группы «Меломаны». Вы можете стать её участником! Для более подробной информации прочтите правила обмена. Также вы можете связаться с автором сообщения и обсудить детали обмена.
dimka007
решил немного Германского раздать )))

а Alex2GB как всегда на подхвате ) свое не упустит
Товарищ Сухов смотрел какие диски еще запечатаные стоят и у нас еще не раздавал.
dimka007
я тогда завтра 2-ой её альбом раздам )))

Страница 1 из 1

new_topic  reply_topic

Текущее время: 23-Сен 01:23
Часовой пояс: GMT + 4

m Сделано с любовью PR-CY.ru Каталог webplus.info