Вход на сайт

Имя:
Пароль:

· Забыли пароль?
logo
Портал Форум
Регистрация Вход


new_topic  reply_topic

  (Pop, Rock) A.Le Coq - Music Box Vol.2 - 2010, FLAC (image + .cue)

pic
Год выпуска: 2010
Страна: Эстония
Жанр: Pop, Rock, Rap
Номер #: 10-09/0230-2430 CD (Baltic Disc)
Продолжительность: 0:31:42

Тип издания: сборник
Аудио кодек: FLAC
Тип рипа: (image + .cue)
Битрейт аудио: lossless

Треклист:

  1. Paha Polly - Naerame
  2. Bedwetters - Hayley
  3. HU? - Miks Ainult Mõni Asi on nii Hea
  4. Leegitsev Sidrun - Mees
  5. Violina ft. Genka & Kene Vernik - Toakärbes
  6. Popidiot - Hanging on Friday
  7. Antonina - Pakike
  8. Ursula - Tiffer
  9. Winny Puhh - Peegelpõrand

Код:

Exact Audio Copy V0.99 prebeta 5 from 4. May 2009

Отчёт EAC об извлечении, выполненном 5. октября 2012, 1:35

Various / A.Le Coq Music Box Vol 2

Дисковод: TSSTcorpCDDVDW SH-S223B   Adapter: 2  ID: 0

Режим чтения                 : Достоверность
Использование точного потока : Да
Отключение кэша аудио        : Да
Использование указателей C2  : Нет

Коррекция смещения при чтении                     : 6
Способность читать области Lead-in и Lead-out     : Нет
Заполнение пропущенных сэмплов тишиной            : Да
Удаление блоков с тишиной в начале и конце        : Нет
При вычислениях CRC использовались нулевые сэмплы : Да
Интерфейс                                         : Встроенный Win32-интерфейс для Win NT/2000

Выходной формат : Внутренние WAV-операции
Формат сэмплов  : 44.100 Гц; 16 бит; стерео

TOC извлечённого CD

     Трек |   Старт  | Длительность | Начальный сектор | Конечный сектор
    ---------------------------------------------------------------------
       1  |  0:00.00 |    3:46.20   |           0      |      16969     
       2  |  3:46.20 |    3:07.20   |       16970      |      31014     
       3  |  6:53.40 |    4:08.67   |       31015      |      49681     
       4  | 11:02.32 |    3:04.58   |       49682      |      63539     
       5  | 14:07.15 |    3:39.23   |       63540      |      79987     
       6  | 17:46.38 |    3:22.00   |       79988      |      95137     
       7  | 21:08.38 |    3:41.37   |       95138      |     111749     
       8  | 24:50.00 |    2:29.44   |      111750      |     122968     
       9  | 27:19.44 |    4:22.35   |      122969      |     142653     

Характеристики диапазона извлечения и сообщения об ошибках

Выбранный диапазон

     Имя файла M:\Эстонская музыка\Сборники\A.Le Coq Music Box Vol.2 (2010)\A.Le Coq Music Box Vol 2.wav

     Пиковый уровень 100.0 %
     Качество диапазона 99.9 %
     CRC теста 1EBEAA45
     CRC копии 1EBEAA45
     Копирование... OK

Ошибок не произошло

 
AccurateRip: сводка
 
Трек  1  точность не определена (достоверность 1)  [05ECC375], AccurateRip вернул [F5F9CA8A]
Трек  2  точность не определена (достоверность 1)  [199573BF], AccurateRip вернул [F2D40E6F]
Трек  3  точность не определена (достоверность 1)  [13103ED0], AccurateRip вернул [24837410]
Трек  4  точность не определена (достоверность 1)  [9C43263A], AccurateRip вернул [8D09FBF9]
Трек  5  точность не определена (достоверность 1)  [D87CE3BC], AccurateRip вернул [AE3C45BE]
Трек  6  точность не определена (достоверность 1)  [7E726AAF], AccurateRip вернул [5666C926]
Трек  7  точность не определена (достоверность 1)  [A5F8BF3E], AccurateRip вернул [9D44A090]
Трек  8  точность не определена (достоверность 1)  [E6ED0B93], AccurateRip вернул [11BD32FA]
Трек  9  точность не определена (достоверность 1)  [1E38543C], AccurateRip вернул [FCF36B4C]
 
Ни один трек не прошёл проверки на точность
В вашей базе может быть иной вариант штамповки диска

Конец отчёта
Релиз: pic


Бесплатное приложение к пиву A.Le Coq

Страница 1 из 1

new_topic  reply_topic

Текущее время: 19-Май 16:16
Часовой пояс: GMT + 4

m Сделано с любовью