Вход на сайт

Имя:
Пароль:

· Забыли пароль?
logo
Портал Форум
Регистрация Вход


new_topic  reply_topic

  (Euro Disco, Italo-Disco) Lian Ross - The Best Of And More 2006, FLAC (image + .cue)

pic
Год выпуска: 2006
Страна: Германия
Производитель: Россия
Жанр: Euro Disco, Italo-Disco
Номер #: МТ 711507-192-1 (Монолит)
Продолжительность: 00:01:12

Тип издания: альбом
Аудио кодек: FLAC
Тип рипа: (image + .cue)
Битрейт аудио: lossless

Треклист:

01. Say You'll Never
02. Fantasy
03. Scratch My Name
04. It's Up To You
05. Neverending Love (Song)
06. Oh Won't You Tell Me
07. Do You Wanna Funk
08. Feel So Good
09. Say Say Say
10. Neverending Love (Rap)
11. Don't Go Away
12. You're My Heart, You're My Soul
13. One More Chance
14. Hello It's Me

Код:

Exact Audio Copy V0.99 prebeta 5 from 4. May 2009

Отчёт EAC об извлечении, выполненном 27. октября 2012, 18:00

Lian Ross / The Best Of And More

Дисковод: HL-DT-STDVDRAM GSA-T50N   Adapter: 2  ID: 0

Режим чтения                 : Достоверность
Использование точного потока : Да
Отключение кэша аудио        : Да
Использование указателей C2  : Нет

Коррекция смещения при чтении                     : 667
Способность читать области Lead-in и Lead-out     : Нет
Заполнение пропущенных сэмплов тишиной            : Да
Удаление блоков с тишиной в начале и конце        : Нет
При вычислениях CRC использовались нулевые сэмплы : Да
Интерфейс                                         : Установленный внешний ASPI-интерфейс

Выходной формат : Внутренние WAV-операции
Формат сэмплов  : 44.100 Гц; 16 бит; стерео

TOC извлечённого CD

     Трек |   Старт  | Длительность | Начальный сектор | Конечный сектор
    ---------------------------------------------------------------------
       1  |  0:00.00 |    5:48.34   |           0      |      26133     
       2  |  5:48.34 |    5:32.07   |       26134      |      51040     
       3  | 11:20.41 |    5:17.07   |       51041      |      74822     
       4  | 16:37.48 |    5:37.24   |       74823      |     100121     
       5  | 22:14.72 |    5:47.71   |      100122      |     126217     
       6  | 28:02.68 |    4:52.66   |      126218      |     148183     
       7  | 32:55.59 |    6:52.53   |      148184      |     179136     
       8  | 39:48.37 |    4:29.15   |      179137      |     199326     
       9  | 44:17.52 |    5:39.26   |      199327      |     224777     
      10  | 49:57.03 |    5:37.34   |      224778      |     250086     
      11  | 55:34.37 |    5:32.43   |      250087      |     275029     
      12  | 61:07.05 |    5:16.14   |      275030      |     298743     
      13  | 66:23.19 |    3:00.45   |      298744      |     312288     
      14  | 69:23.64 |    3:22.32   |      312289      |     327470     

Характеристики диапазона извлечения и сообщения об ошибках

Выбранный диапазон

     Имя файла C:\Users\Alex\Desktop\Lian Ross - The Best Of And More.wav

     Пиковый уровень 97.7 %
     Качество диапазона 100.0 %
     CRC теста FC826D3E
     CRC копии FC826D3E
     Копирование... OK

Ошибок не произошло

 
AccurateRip: сводка
 
Трек  1  точность не определена (достоверность 4)  [ECE63797], AccurateRip вернул [BD9D00E1]
Трек  2  точность не определена (достоверность 4)  [53A7987F], AccurateRip вернул [77D23892]
Трек  3  точность не определена (достоверность 4)  [8633223F], AccurateRip вернул [23082015]
Трек  4  точность не определена (достоверность 4)  [D3E4A3DC], AccurateRip вернул [C24EA0E6]
Трек  5  точность не определена (достоверность 4)  [7E871216], AccurateRip вернул [B8373F5B]
Трек  6  точность не определена (достоверность 4)  [D0DB58C0], AccurateRip вернул [5176C340]
Трек  7  точность не определена (достоверность 4)  [CFFA5431], AccurateRip вернул [ABEDB9E3]
Трек  8  точность не определена (достоверность 4)  [2D4E74C0], AccurateRip вернул [1B093113]
Трек  9  точность не определена (достоверность 3)  [9DB5E0CE], AccurateRip вернул [19434474]
Трек 10  точность не определена (достоверность 3)  [A2ECAB15], AccurateRip вернул [70F212A6]
Трек 11  точность не определена (достоверность 3)  [091DFBAB], AccurateRip вернул [296D00E1]
Трек 12  точность не определена (достоверность 4)  [70D9EAF0], AccurateRip вернул [E9255926]
Трек 13  точность не определена (достоверность 4)  [D04917B7], AccurateRip вернул [4EFBF6C6]
Трек 14  точность не определена (достоверность 4)  [27EE9D65], AccurateRip вернул [D7B5D6CE]
 
Ни один трек не прошёл проверки на точность
В вашей базе может быть иной вариант штамповки диска

Конец отчёта
thanks for this nice Cd album
howie.dede nix zu danken

Страница 1 из 1

new_topic  reply_topic

Текущее время: 22-Июн 21:16
Часовой пояс: GMT + 4

m Сделано с любовью PR-CY.ru Каталог webplus.info