Вход на сайт

Имя:
Пароль:

· Забыли пароль?
logo
Портал Форум
Регистрация Вход


new_topic  reply_topic

  (Pop) Eesti Megamix - 2002, FLAC (image + .cue) lossless

pic
Год выпуска: 2002
Страна: Эстония
Производитель: Эстония
Жанр: Pop
Номер #: REC 0062.2 (Records 2000)
Продолжительность: 0:59:54

Тип издания: сборник
Аудио кодек: FLAC
Тип рипа: (image + .cue)
Битрейт аудио: lossless

Треклист:

    MEGAMIX 1

  1. Armin ja Jaanika - Suvepäike (2:03)
  2. Mait Maltis - Dolores (2:00)
  3. Üllar Jörberg - Põrgulik naine (0:52)
  4. Mati Nuude - Lilleõis (1:34)
  5. Armin ja Jaanika - Mängukaaslane (2:07)
  6. Jüri Homenja - Klaver (2:12)
  7. Üllar Jörberg - Mereranna tuul (1:24)
  8. Oleg Sõlg - Tore öö (1:09)
  9. Jüri Homenja - Päevik (1:42)
  10. Meie Mees - Tütreke, second hand (1:00)
  11. Erich Krieger - Tere hommikust, Eestimaa (1:18)
  12. Anne Veski - Hea tuju laol- Atmosfäär (0:57)
  13. Hovery Covery feat. Constance - Puudutus (1:49)
  14. N-Euro - The Postimees (1:18)
  15. Nightlight duo - Jäljed liival (1:15)
  16. Anaconda - Soovid mind (1:48)
  17. Marco - Vaikiv tunne (1:51)
  18. Anaconda - Päikeserand (1:41)
  19. Oleg Sõlg - Liisa (1:24)
  20. Erich Krieger - Kui on meri hülgehall (1:16)
  21. Tarmo Pihlap - Amarillo (1:21)
  22. Hannah - Salaja (1:22)
  23. Hovery Covery - Kaks säravat silma (1:50)
  24. N-Euro - Vesi peale (1:32)
  25. Seelikukütid - Robert (2:06)
  26. Mari-Liis - Sinu kõrval (1:14)
  27. Hovery Covery - Võõra linna tuled (1:14)
  28. Marco - Sa tulema pead (1:36)
  29. Tarmo Pihlap - Alpi lauluke (1:00)

    MEGAMIX 2

  30. Intro (0:24)
  31. Armin ja Jaanika - Suvepäike (1:00)
  32. Mait Maltis - Dolores (1:06)
  33. Mati Nuude - Lilleõis (0:46)
  34. Armin Ja Jaanika - Lolleõis (1:03)
  35. Jüri Homenja - Päevik (0:32)
  36. Oleg Sõlg - Tore öö (0:30)
  37. Jüri Homenja - Päevik (0:58)
  38. Meie Mees - Tütreke, second hand (0:48)
  39. Hovery Covery feat. Constance - Puudutus (1:24)
  40. N-Euro - The postimees (0:35)
  41. Nightlight duo - Jäljed liival (0:42)
  42. Anaconda - Soovi mind (0:46)
  43. Oleg Sõlg - Liisa (0:37)
  44. Erich Krieger - Kui on meri hülgehall (0:34)
  45. Tarmo Pihlap - Amarillo (0:21)
  46. Hannah - Salaja (0:47)
  47. Hovery Covery - Kaks säravat silma (0:27)
  48. Seelikukütid - Robert (0:35)
  49. Mari-Liis - Sinu kõrval (0:22)
  50. Marco - Sa tulema pead (0:15)
  51. Tarmo Pihlap - Alpi lauluke (0:57)


picNon-Stoppic

Код:

Exact Audio Copy V0.99 prebeta 5 from 4. May 2009

Отчёт EAC об извлечении, выполненном 29. октября 2012, 21:17

Various / Eesti Megamix 2002

Дисковод: TSSTcorpCDDVDW SH-S223B   Adapter: 2  ID: 0

Режим чтения                 : Достоверность
Использование точного потока : Да
Отключение кэша аудио        : Да
Использование указателей C2  : Нет

Коррекция смещения при чтении                     : 6
Способность читать области Lead-in и Lead-out     : Нет
Заполнение пропущенных сэмплов тишиной            : Да
Удаление блоков с тишиной в начале и конце        : Нет
При вычислениях CRC использовались нулевые сэмплы : Да
Интерфейс                                         : Встроенный Win32-интерфейс для Win NT/2000

Выходной формат : Внутренние WAV-операции
Формат сэмплов  : 44.100 Гц; 16 бит; стерео

TOC извлечённого CD

     Трек |   Старт  | Длительность | Начальный сектор | Конечный сектор
    ---------------------------------------------------------------------
       1  |  0:00.00 |    2:03.25   |           0      |       9249     
       2  |  2:03.25 |    2:00.68   |        9250      |      18317     
       3  |  4:04.18 |    0:52.35   |       18318      |      22252     
       4  |  4:56.53 |    1:34.72   |       22253      |      29374     
       5  |  6:31.50 |    2:07.55   |       29375      |      38954     
       6  |  8:39.30 |    2:12.59   |       38955      |      48913     
       7  | 10:52.14 |    1:24.38   |       48914      |      55251     
       8  | 12:16.52 |    1:09.48   |       55252      |      60474     
       9  | 13:26.25 |    1:42.65   |       60475      |      68189     
      10  | 15:09.15 |    1:00.07   |       68190      |      72696     
      11  | 16:09.22 |    1:18.53   |       72697      |      78599     
      12  | 17:28.00 |    0:57.70   |       78600      |      82944     
      13  | 18:25.70 |    1:49.60   |       82945      |      91179     
      14  | 20:15.55 |    1:18.46   |       91180      |      97075     
      15  | 21:34.26 |    1:15.27   |       97076      |     102727     
      16  | 22:49.53 |    1:48.58   |      102728      |     110885     
      17  | 24:38.36 |    1:51.56   |      110886      |     119266     
      18  | 26:30.17 |    1:41.45   |      119267      |     126886     
      19  | 28:11.62 |    1:24.25   |      126887      |     133211     
      20  | 29:36.12 |    1:16.72   |      133212      |     138983     
      21  | 30:53.09 |    1:21.48   |      138984      |     145106     
      22  | 32:14.57 |    1:22.58   |      145107      |     151314     
      23  | 33:37.40 |    1:50.60   |      151315      |     159624     
      24  | 35:28.25 |    1:32.45   |      159625      |     166569     
      25  | 37:00.70 |    2:06.62   |      166570      |     176081     
      26  | 39:07.57 |    1:14.29   |      176082      |     181660     
      27  | 40:22.11 |    1:14.30   |      181661      |     187240     
      28  | 41:36.41 |    1:36.17   |      187241      |     194457     
      29  | 43:12.58 |    1:00.45   |      194458      |     199002     
      30  | 44:13.28 |    0:24.66   |      199003      |     200868     
      31  | 44:38.19 |    1:00.56   |      200869      |     205424     
      32  | 45:39.00 |    1:06.04   |      205425      |     210378     
      33  | 46:45.04 |    0:46.40   |      210379      |     213868     
      34  | 47:31.44 |    1:03.69   |      213869      |     218662     
      35  | 48:35.38 |    0:32.17   |      218663      |     221079     
      36  | 49:07.55 |    0:30.56   |      221080      |     223385     
      37  | 49:38.36 |    0:58.55   |      223386      |     227790     
      38  | 50:37.16 |    0:48.74   |      227791      |     231464     
      39  | 51:26.15 |    1:24.03   |      231465      |     237767     
      40  | 52:50.18 |    0:35.65   |      237768      |     240457     
      41  | 53:26.08 |    0:42.70   |      240458      |     243677     
      42  | 54:09.03 |    0:46.51   |      243678      |     247178     
      43  | 54:55.54 |    0:37.44   |      247179      |     249997     
      44  | 55:33.23 |    0:34.07   |      249998      |     252554     
      45  | 56:07.30 |    0:21.15   |      252555      |     254144     
      46  | 56:28.45 |    0:47.43   |      254145      |     257712     
      47  | 57:16.13 |    0:27.62   |      257713      |     259799     
      48  | 57:44.00 |    0:35.13   |      259800      |     262437     
      49  | 58:19.13 |    0:22.10   |      262438      |     264097     
      50  | 58:41.23 |    0:15.49   |      264098      |     265271     
      51  | 58:56.72 |    0:57.43   |      265272      |     269589     

Характеристики диапазона извлечения и сообщения об ошибках

Выбранный диапазон

     Имя файла M:\Эстонская музыка\Сборники\Eesti Megamix 2002\Eesti Megamix 2002.wav

     Пиковый уровень 100.0 %
     Качество диапазона 100.0 %
     CRC теста 89F83EE2
     CRC копии 89F83EE2
     Копирование... OK

Ошибок не произошло

 
AccurateRip: сводка
 
Трек  1  нет в базе данных
Трек  2  нет в базе данных
Трек  3  нет в базе данных
Трек  4  нет в базе данных
Трек  5  нет в базе данных
Трек  6  нет в базе данных
Трек  7  нет в базе данных
Трек  8  нет в базе данных
Трек  9  нет в базе данных
Трек 10  нет в базе данных
Трек 11  нет в базе данных
Трек 12  нет в базе данных
Трек 13  нет в базе данных
Трек 14  нет в базе данных
Трек 15  нет в базе данных
Трек 16  нет в базе данных
Трек 17  нет в базе данных
Трек 18  нет в базе данных
Трек 19  нет в базе данных
Трек 20  нет в базе данных
Трек 21  нет в базе данных
Трек 22  нет в базе данных
Трек 23  нет в базе данных
Трек 24  нет в базе данных
Трек 25  нет в базе данных
Трек 26  нет в базе данных
Трек 27  нет в базе данных
Трек 28  нет в базе данных
Трек 29  нет в базе данных
Трек 30  нет в базе данных
Трек 31  нет в базе данных
Трек 32  нет в базе данных
Трек 33  нет в базе данных
Трек 34  нет в базе данных
Трек 35  нет в базе данных
Трек 36  нет в базе данных
Трек 37  нет в базе данных
Трек 38  нет в базе данных
Трек 39  нет в базе данных
Трек 40  нет в базе данных
Трек 41  нет в базе данных
Трек 42  нет в базе данных
Трек 43  нет в базе данных
Трек 44  нет в базе данных
Трек 45  нет в базе данных
Трек 46  нет в базе данных
Трек 47  нет в базе данных
Трек 48  нет в базе данных
Трек 49  нет в базе данных
Трек 50  нет в базе данных
Трек 51  нет в базе данных
 
Ни одного трека нет в базе AccurateRip

Конец отчёта

Страница 1 из 1

new_topic  reply_topic

Текущее время: 25-Июл 04:16
Часовой пояс: GMT + 4

m Сделано с любовью