Вход на сайт

Имя:
Пароль:

· Забыли пароль?
logo
Портал Форум
Регистрация Вход


new_topic  reply_topic

  (Pop) Various Artists - ВсеСОЮЗный Сборник 1 1998, APE (image + .cue)

pic
Год выпуска: 1998
Страна: Россия
Производитель: Россия
Жанр: Pop
Номер #: SZCD0949-98 Союз
Продолжительность: CD 1 51:14 CD 2 54:51

Тип издания: сборник
Аудио кодек: APE
Тип рипа: (image + .cue)
Битрейт аудио: lossless

Треклист:

CD 1

01. Леонид Агутин - Не Унывай
02. Ника - Как Штык
03. Андрей Губин - Зима
04. Блестящие - Где Же Ты
05. Ирина Салтыкова - Ты Полюби
06. Двое - Зной
07. Наталья Сенчукова - Где-То На Горячем Юге
08. Тет-А-Тет - Синие Глаза
09. Лицей - Незнакомка
10. Рок-Острова - Сирень
11. Руки Вверх - Студент
12. Алла Горбачёва - Мама
13. Сплин - Орбит Без Сахара
14. Балаган Лимитед - Проводы

CD 2

01. DJ Вовочка - Таможня Даёт Добро
02. Хочу ! - Раки
03. Мурат Насыров - Южная Ночь
04. Юлия Началова - Герой Не Моего Романа
05. Самоцветы - Прошлогодние Глаза
06. Алла Пугачева - Позови Меня С Собой
07. Игорь Слуцкий И "Лихо" - Между Мной И Тобой
08. Наталья Штурм - Твой Самолёт
09. Вячеслав Быков - Накажи
10. Кристина Орбакайте - Музыкант
11. Дюна - Чи-Чи-Га
12. Мумий Тролль - Утекай
13. Диана - Скатертью Дорога
14. Валерий Меладзе - Старый Год

Доп. информация: CD 2 Ничего не пойму, первый диск все треки валидны, 2 диск 2,3,4,7,9,10,12,14 из MP3

Код:

Exact Audio Copy V0.99 prebeta 5 from 4. May 2009

Отчёт EAC об извлечении, выполненном 10. июня 2012, 20:42

Various  Artists / ВсеСОЮЗный  Сборник  1  ( CD 1 )

Дисковод: Optiarc DVD RW AD-7263S   Adapter: 5  ID: 0

Режим чтения                 : Достоверность
Использование точного потока : Да
Отключение кэша аудио        : Да
Использование указателей C2  : Нет

Коррекция смещения при чтении                     : 48
Способность читать области Lead-in и Lead-out     : Нет
Заполнение пропущенных сэмплов тишиной            : Да
Удаление блоков с тишиной в начале и конце        : Нет
При вычислениях CRC использовались нулевые сэмплы : Да
Интерфейс                                         : Встроенный Win32-интерфейс для Win NT/2000

Выходной формат          : Monkey's Audio (без потерь)
Выбранный битрейт        : Extra High Lossless Compression
Качество                 : Высокий
Добавление ID3-тэга      : Нет
Утилита сжатия           : C:\Program Files (x86)\Monkey's Audio\MAC.exe
Дополнительные параметры : -w "Artist=%a" -w "Title=%t" -w "Album=%g" -w "Year=%y" -w "Track=%n" -w "Genre=%m" -h %s %d

TOC извлечённого CD

     Трек |   Старт  | Длительность | Начальный сектор | Конечный сектор
    ---------------------------------------------------------------------
       1  |  0:00.00 |    3:23.40   |           0      |      15264     
       2  |  3:23.40 |    3:51.02   |       15265      |      32591     
       3  |  7:14.42 |    3:49.16   |       32592      |      49782     
       4  | 11:03.58 |    4:01.45   |       49783      |      67902     
       5  | 15:05.28 |    4:00.35   |       67903      |      85937     
       6  | 19:05.63 |    3:22.11   |       85938      |     101098     
       7  | 22:27.74 |    3:25.06   |      101099      |     116479     
       8  | 25:53.05 |    3:50.03   |      116480      |     133732     
       9  | 29:43.08 |    4:09.41   |      133733      |     152448     
      10  | 33:52.49 |    4:08.10   |      152449      |     171058     
      11  | 38:00.59 |    3:45.08   |      171059      |     187941     
      12  | 41:45.67 |    4:09.74   |      187942      |     206690     
      13  | 45:55.66 |    2:10.44   |      206691      |     216484     
      14  | 48:06.35 |    3:07.64   |      216485      |     230573     

Характеристики диапазона извлечения и сообщения об ошибках

Выбранный диапазон

     Имя файла D:\Bit Torrent\Новая папка\Various  Artists - ВсеСОЮЗный  Сборник  1 CD 1\Various  Artists - ВсеСОЮЗный  Сборник  1  ( CD 1 )\Various  Artists - ВсеСОЮЗный  Сборник  1  ( CD 1 ).wav

     Пиковый уровень 100.0 %
     Качество диапазона 100.0 %
     CRC теста 251C690C
     CRC копии 251C690C
     Копирование... OK

Ошибок не произошло

 
AccurateRip: сводка
 
Трек  1  нет в базе данных
Трек  2  нет в базе данных
Трек  3  нет в базе данных
Трек  4  нет в базе данных
Трек  5  нет в базе данных
Трек  6  нет в базе данных
Трек  7  нет в базе данных
Трек  8  нет в базе данных
Трек  9  нет в базе данных
Трек 10  нет в базе данных
Трек 11  нет в базе данных
Трек 12  нет в базе данных
Трек 13  нет в базе данных
Трек 14  нет в базе данных
 
Ни одного трека нет в базе AccurateRip

Конец отчёта

Код:

Exact Audio Copy V0.99 prebeta 5 from 4. May 2009

Отчёт EAC об извлечении, выполненном 10. июня 2012, 21:23

Various  Artists / ВсеСОЮЗный  Сборник  1  ( CD 2 )

Дисковод: Optiarc DVD RW AD-7263S   Adapter: 5  ID: 0

Режим чтения                 : Достоверность
Использование точного потока : Да
Отключение кэша аудио        : Да
Использование указателей C2  : Нет

Коррекция смещения при чтении                     : 48
Способность читать области Lead-in и Lead-out     : Нет
Заполнение пропущенных сэмплов тишиной            : Да
Удаление блоков с тишиной в начале и конце        : Нет
При вычислениях CRC использовались нулевые сэмплы : Да
Интерфейс                                         : Встроенный Win32-интерфейс для Win NT/2000

Выходной формат          : Monkey's Audio (без потерь)
Выбранный битрейт        : Extra High Lossless Compression
Качество                 : Высокий
Добавление ID3-тэга      : Нет
Утилита сжатия           : C:\Program Files (x86)\Monkey's Audio\MAC.exe
Дополнительные параметры : -w "Artist=%a" -w "Title=%t" -w "Album=%g" -w "Year=%y" -w "Track=%n" -w "Genre=%m" -h %s %d

TOC извлечённого CD

     Трек |   Старт  | Длительность | Начальный сектор | Конечный сектор
    ---------------------------------------------------------------------
       1  |  0:00.00 |    4:40.48   |           0      |      21047     
       2  |  4:40.48 |    4:41.10   |       21048      |      42132     
       3  |  9:21.58 |    3:11.06   |       42133      |      56463     
       4  | 12:32.64 |    4:43.68   |       56464      |      77756     
       5  | 17:16.57 |    4:39.00   |       77757      |      98681     
       6  | 21:55.57 |    4:16.25   |       98682      |     117906     
       7  | 26:12.07 |    3:23.65   |      117907      |     133196     
       8  | 29:35.72 |    3:26.19   |      133197      |     148665     
       9  | 33:02.16 |    3:37.72   |      148666      |     165012     
      10  | 36:40.13 |    3:53.24   |      165013      |     182511     
      11  | 40:33.37 |    3:09.40   |      182512      |     196726     
      12  | 43:43.02 |    2:19.56   |      196727      |     207207     
      13  | 46:02.58 |    3:49.47   |      207208      |     224429     
      14  | 49:52.30 |    4:58.70   |      224430      |     246849     

Характеристики диапазона извлечения и сообщения об ошибках

Выбранный диапазон

     Имя файла D:\Bit Torrent\Новая папка\Various  Artists - ВсеСОЮЗный  Сборник  1 CD 1\Various  Artists - ВсеСОЮЗный  Сборник  1  ( CD 2 )\Various  Artists - ВсеСОЮЗный  Сборник  1  ( CD 2 ).wav

     Пиковый уровень 100.0 %
     Качество диапазона 100.0 %
     CRC теста BE6E6B0F
     CRC копии BE6E6B0F
     Копирование... OK

Ошибок не произошло

 
AccurateRip: сводка
 
Трек  1  нет в базе данных
Трек  2  нет в базе данных
Трек  3  нет в базе данных
Трек  4  нет в базе данных
Трек  5  нет в базе данных
Трек  6  нет в базе данных
Трек  7  нет в базе данных
Трек  8  нет в базе данных
Трек  9  нет в базе данных
Трек 10  нет в базе данных
Трек 11  нет в базе данных
Трек 12  нет в базе данных
Трек 13  нет в базе данных
Трек 14  нет в базе данных
 
Ни одного трека нет в базе AccurateRip

Конец отчёта
Странно, у меня немного другая обложка и Tau Analyzer говорит, что все треки CDDA.
pic
Наши пираты как всегда в своем репертуаре.

dimassamid писал(а):

Странно, у меня немного другая обложка и Tau Analyzer говорит, что все треки CDDA.
pic
Мне вообще думается что пустых болванок с рисунком с завода натырили и дома записывали.

Alex2GB Наши пираты как всегда в своем репертуаре.

Бракоделы, даже продукцию подделать толком не могут.
Я знаю, что с такой обложкой выходила кассета.
pic
Я потом раздам свой рип. У меня не хватает 2-го и 6-го выпусков, остальные в комплекте.
Я вообще боюсь уже что то выкладывать, у меня один фарш, ничего лицензионного. Скоро пинками выгонять начнут, засоряю только трекер.
shutov12 ты меньше ходи на радио рынок ))))
dimka007 смотри еще принесет нам какой-нибудь мегарарЭ, никогда не слыханный

dimka007 писал(а):

shutov12 ты меньше ходи на радио рынок ))))
Этот материал из другого источника взят, Но думаю что в своё время он может на радио-рынке и продавался.
shutov12

Оформил свою версию первой части:
https://muviteam.com/forum/viewtopic.php?t=12252

Твой релиз также пусть обязательно будет. Пиратское издание - тоже издание, будет для ознакомления. Статус сменил на желтый.
Ок. Можно даже синим поставить.

Страница 1 из 1

new_topic  reply_topic

Текущее время: 25-Июн 12:24
Часовой пояс: GMT + 4

m Сделано с любовью