Вход на сайт

Имя:
Пароль:

· Забыли пароль?
logo
Портал Форум
Регистрация Вход


new_topic  reply_topic

  (Disco, Pop) Modern Talking - Back For Good ( New Bonus ) 1998, APE (image + .cue)

pic
Год выпуска: 1998
Страна: Germany
Производитель: Россия
Жанр: Disco, Pop
Номер #: Mt8 N 1005
Продолжительность: 73:40

Тип издания: альбом
Аудио кодек: APE
Тип рипа: (image + .cue)
Битрейт аудио: lossless

Треклист:

01. You're My Heart, You're My Soul ( Mix' 98 ) ( Feat. Eric Singleton )
02. Brother Louie ( New Version )
03. I Will Follow You ( New Hit' 98 )
04. Cheri Cheri Lady ( New Version )
05. You Can Win If You Want ( New Version )
06. Don't Play With My Heart ( New Hit' 98 )
07. Atlantis Is Caling ( New Version )
08. Geronimo's Cadillac ( New Version )
09. Give Me Peace On Earth ( New Version )
10. We Take The Chance ( New Hit' 98 )
11. Jet Airliner ( New Version )
12. Lady Lai ( New Version )
13. Anything Is Possible ( New Hit' 98 )
14. In 100 Year' s ( New Version )
15. Angie's Heart ( New Version )
16. You're My Heart, You're My Soul ( Original No. 1 Mix '84 )
17. You Can Win If You Want ( Original No. 1 Mix '84 )
18. No. 1 Hit Medley

Доп. информация: 10 Трек MP3, номера нет, как и лейбла, только на диске такой номер Mt8 N 1005.

Код:

Exact Audio Copy V0.99 prebeta 5 from 4. May 2009

Отчёт EAC об извлечении, выполненном 10. ноября 2012, 21:06

Modern  Talking / Back  For  Good  ( New  Bonus )

Дисковод: Optiarc DVD RW AD-7263S   Adapter: 5  ID: 0

Режим чтения                 : Достоверность
Использование точного потока : Да
Отключение кэша аудио        : Да
Использование указателей C2  : Нет

Коррекция смещения при чтении                     : 48
Способность читать области Lead-in и Lead-out     : Нет
Заполнение пропущенных сэмплов тишиной            : Да
Удаление блоков с тишиной в начале и конце        : Нет
При вычислениях CRC использовались нулевые сэмплы : Да
Интерфейс                                         : Встроенный Win32-интерфейс для Win NT/2000

Выходной формат          : Monkey's Audio (без потерь)
Выбранный битрейт        : Extra High Lossless Compression
Качество                 : Высокий
Добавление ID3-тэга      : Нет
Утилита сжатия           : C:\Program Files (x86)\Monkey's Audio\MAC.exe
Дополнительные параметры : -w "Artist=%a" -w "Title=%t" -w "Album=%g" -w "Year=%y" -w "Track=%n" -w "Genre=%m" -h %s %d

TOC извлечённого CD

     Трек |   Старт  | Длительность | Начальный сектор | Конечный сектор
    ---------------------------------------------------------------------
       1  |  0:00.00 |    3:21.44   |           0      |      15118     
       2  |  3:21.44 |    3:38.01   |       15119      |      31469     
       3  |  6:59.45 |    3:39.62   |       31470      |      47956     
       4  | 10:39.32 |    4:03.56   |       47957      |      66237     
       5  | 14:43.13 |    1:38.10   |       66238      |      73597     
       6  | 16:21.23 |    3:39.28   |       73598      |      90050     
       7  | 20:00.51 |    3:31.29   |       90051      |     105904     
       8  | 23:32.05 |    3:26.26   |      105905      |     121380     
       9  | 26:58.31 |    3:11.52   |      121381      |     135757     
      10  | 30:10.08 |    4:29.01   |      135758      |     155933     
      11  | 34:39.09 |    4:10.50   |      155934      |     174733     
      12  | 38:49.59 |    4:02.66   |      174734      |     192949     
      13  | 42:52.50 |    5:08.72   |      192950      |     216121     
      14  | 48:01.47 |    3:40.73   |      216122      |     232694     
      15  | 51:42.45 |    4:02.00   |      232695      |     250844     
      16  | 55:44.45 |    3:35.16   |      250845      |     266985     
      17  | 59:19.61 |    3:25.23   |      266986      |     282383     
      18  | 62:45.09 |    3:50.12   |      282384      |     299645     
      19  | 66:35.21 |    7:05.03   |      299646      |     331523     

Характеристики диапазона извлечения и сообщения об ошибках

Выбранный диапазон

     Имя файла D:\Bit Torrent\Modern  Talking - Back  For  Good  ( New  Bonus )  1998\Modern  Talking - Back  For  Good  ( New  Bonus ).wav

     Пиковый уровень 100.0 %
     Качество диапазона 100.0 %
     CRC теста 0ECD8B44
     CRC копии 0ECD8B44
     Копирование... OK

Ошибок не произошло

 
AccurateRip: сводка
 
Трек  1  точное извлечение (доверие 3)  [36168525]
Трек  2  точное извлечение (доверие 3)  [D6CA2C34]
Трек  3  точное извлечение (доверие 3)  [2F2B89FD]
Трек  4  точное извлечение (доверие 3)  [A9A0CA62]
Трек  5  точное извлечение (доверие 3)  [F8812EDD]
Трек  6  точное извлечение (доверие 3)  [DC1FC114]
Трек  7  точное извлечение (доверие 3)  [D00C7F55]
Трек  8  точное извлечение (доверие 3)  [160BE2D8]
Трек  9  точное извлечение (доверие 3)  [93DEB88F]
Трек 10  точное извлечение (доверие 3)  [3473F3DD]
Трек 11  точное извлечение (доверие 3)  [DAAD36AF]
Трек 12  точное извлечение (доверие 3)  [E7B0B9A5]
Трек 13  точное извлечение (доверие 3)  [40688D38]
Трек 14  точное извлечение (доверие 3)  [2B12710C]
Трек 15  точное извлечение (доверие 3)  [362AA4E8]
Трек 16  точное извлечение (доверие 3)  [26BAD691]
Трек 17  точное извлечение (доверие 3)  [A6EADC08]
Трек 18  точное извлечение (доверие 3)  [82411E56]
Трек 19  точное извлечение (доверие 2)  [626CD32B]
 
Все треки извлечены точно

Конец отчёта

Цитата:

Жанр: Eurodance, Euro House
разве ?
Алекс, нет сейчас одного стиля у многих групп, как правило эксперементируют. Этот Модерн не тот Modern Talking что когда то зажигал. Да и время то ушло, не многие остались верны той эпохе.
shutov12 получается они заново спели в новой обработке? Тогда тут больше уже попсой попахивает, но никак не Евро.
Alex2GB это все кокс, люди сами не знают что за стиль и руководствуются такими авторитетными сайтами. Модерны всегда были Disco

Эксперемент сделали только с реп обработкой
dimka007 тогда может ты сможешь объяснить автору раздачи, что тут другой стиль.
Alex2GB ты с ним разбери трацки и объясни.

Страница 1 из 1

new_topic  reply_topic

Текущее время: 22-Июн 20:28
Часовой пояс: GMT + 4

m Сделано с любовью PR-CY.ru Каталог webplus.info