Вход на сайт

Имя:
Пароль:

· Забыли пароль?
logo
Портал Форум
Регистрация Вход


new_topic  reply_topic

  (Disco, Europop) Студия-80 - Придуманный мир - 2008, FLAC (image + .cue)

pic
Год выпуска: 2008
Страна: Россия
Производитель: Россия
Жанр: Disco, Europop, Synth-pop, Hi NRG
Номер #: нет (СПЦ Парнас)
Продолжительность: 1:07:45

Тип контента: альбом
Аудио кодек: FLAC
Тип рипа: (image + .cue)
Битрейт аудио: lossless

Треклист:

  1. Мой телефон
  2. Я не жалею
  3. Придуманный мир
  4. Долгий путь к тебе
  5. Далеко
  6. Осень
  7. Другая я
  8. Ночь
  9. Остановись
  10. Но я не верю
  11. Осколки лета
  12. Ночь блестит росой
  13. Только ты
  14. Тайны далёких звёзд

Код:

Exact Audio Copy V0.99 prebeta 5 from 4. May 2009

Отчёт EAC об извлечении, выполненном 28. ноября 2012, 21:16

Студия-80 / Придуманный мир

Дисковод: TSSTcorpCDDVDW SH-S223B   Adapter: 2  ID: 0

Режим чтения                 : Достоверность
Использование точного потока : Да
Отключение кэша аудио        : Да
Использование указателей C2  : Нет

Коррекция смещения при чтении                     : 6
Способность читать области Lead-in и Lead-out     : Нет
Заполнение пропущенных сэмплов тишиной            : Да
Удаление блоков с тишиной в начале и конце        : Нет
При вычислениях CRC использовались нулевые сэмплы : Да
Интерфейс                                         : Встроенный Win32-интерфейс для Win NT/2000

Выходной формат : Внутренние WAV-операции
Формат сэмплов  : 44.100 Гц; 16 бит; стерео

TOC извлечённого CD

     Трек |   Старт  | Длительность | Начальный сектор | Конечный сектор
    ---------------------------------------------------------------------
       1  |  0:00.00 |    5:13.32   |           0      |      23506     
       2  |  5:13.32 |    5:02.14   |       23507      |      46170     
       3  | 10:15.46 |    5:09.73   |       46171      |      69418     
       4  | 15:25.44 |    5:12.49   |       69419      |      92867     
       5  | 20:38.18 |    5:07.60   |       92868      |     115952     
       6  | 25:46.03 |    4:46.65   |      115953      |     137467     
       7  | 30:32.68 |    4:44.02   |      137468      |     158769     
       8  | 35:16.70 |    4:27.33   |      158770      |     178827     
       9  | 39:44.28 |    5:14.59   |      178828      |     202436     
      10  | 44:59.12 |    3:41.63   |      202437      |     219074     
      11  | 48:41.00 |    5:20.58   |      219075      |     243132     
      12  | 54:01.58 |    4:29.03   |      243133      |     263310     
      13  | 58:30.61 |    4:15.50   |      263311      |     282485     
      14  | 62:46.36 |    4:58.49   |      282486      |     304884     

Характеристики диапазона извлечения и сообщения об ошибках

Выбранный диапазон

     Имя файла M:\SpaceSynth\Студия-80 (lossless)\Студия-80 - Придуманный мир (2008)\Студия-80 - Придуманный мир.wav

     Пиковый уровень 97.1 %
     Качество диапазона 99.9 %
     CRC теста 3A487E6F
     CRC копии 3A487E6F
     Копирование... OK

Ошибок не произошло

 
AccurateRip: сводка
 
Трек  1  точность не определена (достоверность 1)  [89513ADB], AccurateRip вернул [B8869955]
Трек  2  точность не определена (достоверность 1)  [0C6CC856], AccurateRip вернул [F6BF5E8A]
Трек  3  точность не определена (достоверность 1)  [69723F12], AccurateRip вернул [DC44A7E2]
Трек  4  точность не определена (достоверность 1)  [DACD6449], AccurateRip вернул [F796B576]
Трек  5  точность не определена (достоверность 1)  [A3A171B5], AccurateRip вернул [BF2F0050]
Трек  6  точность не определена (достоверность 1)  [514B9CC4], AccurateRip вернул [B9985FC7]
Трек  7  точность не определена (достоверность 1)  [FB09A137], AccurateRip вернул [4425D8EA]
Трек  8  точность не определена (достоверность 1)  [C941B6C1], AccurateRip вернул [E7EC4924]
Трек  9  точность не определена (достоверность 1)  [9EFCEFD8], AccurateRip вернул [093ACBDE]
Трек 10  точность не определена (достоверность 1)  [6AECC068], AccurateRip вернул [E9A3631B]
Трек 11  точность не определена (достоверность 1)  [AE640963], AccurateRip вернул [B40FF4FA]
Трек 12  точность не определена (достоверность 1)  [E9C8F9D7], AccurateRip вернул [356EDD3C]
Трек 13  точность не определена (достоверность 1)  [5A88DF22], AccurateRip вернул [85FAED63]
Трек 14  точность не определена (достоверность 1)  [F574D444], AccurateRip вернул [BBB1C10C]
 
Ни один трек не прошёл проверки на точность
В вашей базе может быть иной вариант штамповки диска

Конец отчёта

Страница 1 из 1

new_topic  reply_topic

Текущее время: 22-Июн 21:10
Часовой пояс: GMT + 4

m Сделано с любовью PR-CY.ru Каталог webplus.info