Вход на сайт

Имя:
Пароль:

· Забыли пароль?
logo
Портал Форум
Регистрация Вход


new_topic  reply_topic

  (Pop, House) Eha - Gotta Go - 2005, FLAC (image + .cue)

pic
Год выпуска: 2005
Страна: Эстония
Производитель: Эстония
Жанр: Pop, House
Номер #: нет (Global Music Group)
Продолжительность: 0:20:19

Тип контента: сингл
Аудио кодек: FLAC
Тип рипа: (image + .cue)
Битрейт аудио: lossless

Треклист:

  1. Gotta Go (Original Mix)
  2. Gotta Go (DP Russian Remix)
  3. Gotta Go (Dance Remix)
  4. Gotta Go (Analog Element Remix)
  5. Gotta Go (Analog Element Extended Remix)

Код:

Exact Audio Copy V0.99 prebeta 5 from 4. May 2009

Отчёт EAC об извлечении, выполненном 3. декабря 2012, 21:56

Eha / Gotta Go

Дисковод: TSSTcorpCDDVDW SH-S223B   Adapter: 2  ID: 0

Режим чтения                 : Достоверность
Использование точного потока : Да
Отключение кэша аудио        : Да
Использование указателей C2  : Нет

Коррекция смещения при чтении                     : 6
Способность читать области Lead-in и Lead-out     : Нет
Заполнение пропущенных сэмплов тишиной            : Да
Удаление блоков с тишиной в начале и конце        : Нет
При вычислениях CRC использовались нулевые сэмплы : Да
Интерфейс                                         : Встроенный Win32-интерфейс для Win NT/2000

Выходной формат : Внутренние WAV-операции
Формат сэмплов  : 44.100 Гц; 16 бит; стерео

TOC извлечённого CD

     Трек |   Старт  | Длительность | Начальный сектор | Конечный сектор
    ---------------------------------------------------------------------
       1  |  0:00.00 |    2:59.64   |           0      |      13488     
       2  |  2:59.64 |    2:55.27   |       13489      |      26640     
       3  |  5:55.16 |    3:41.14   |       26641      |      43229     
       4  |  9:36.30 |    4:46.03   |       43230      |      64682     
       5  | 14:22.33 |    5:57.34   |       64683      |      91491     

Характеристики диапазона извлечения и сообщения об ошибках

Выбранный диапазон

     Имя файла M:\Эстонская музыка\Eha (lossless)\Eha - Gotta Go (2005)\Eha - Gotta Go.wav

     Пиковый уровень 100.0 %
     Качество диапазона 100.0 %
     CRC теста 50E39339
     CRC копии 50E39339
     Копирование... OK

Ошибок не произошло

Конец отчёта
dimassamid спасибо тебе за этот отличный мегасингл, отлично она поет!

Страница 1 из 1

new_topic  reply_topic

Текущее время: 23-Сен 00:32
Часовой пояс: GMT + 4

m Сделано с любовью PR-CY.ru Каталог webplus.info