Вход на сайт

Имя:
Пароль:

· Забыли пароль?
logo
Портал Форум
Регистрация Вход


new_topic  reply_topic

  (Pop) Hellad Velled - Mulle meeldib - 2012, FLAC (image + .cue) lossless

pic
Год выпуска: 2012
Страна: Эстония
Производитель: Эстония
Жанр: Pop
Номер #: 4742606000744 (Records 2000)
Продолжительность: 0:53:29

Тип контента: альбом
Аудио кодек: FLAC
Тип рипа: (image + .cue)
Битрейт аудио: lossless

Треклист:

  1. Mulle meeldib
  2. C'est la vie
  3. Meie vahel taevas
  4. Ütle mulle jaa
  5. Muinasjutt
  6. Täitub iga soov (La la la)
  7. Satelliit
  8. Paar drinki
  9. Poeg on kodus
  10. Jäätunud armastus
  11. Stopp
  12. Poiss, poiss
  13. Väike Veera
  14. Öised varjud
  15. Sa laula lahti suvi

Код:

Exact Audio Copy V0.99 prebeta 5 from 4. May 2009

Отчёт EAC об извлечении, выполненном 15. декабря 2012, 0:13

Hellad Velled / Mulle meeldib

Дисковод: TSSTcorpCDDVDW SH-S223B   Adapter: 2  ID: 0

Режим чтения                 : Достоверность
Использование точного потока : Да
Отключение кэша аудио        : Да
Использование указателей C2  : Нет

Коррекция смещения при чтении                     : 6
Способность читать области Lead-in и Lead-out     : Нет
Заполнение пропущенных сэмплов тишиной            : Да
Удаление блоков с тишиной в начале и конце        : Нет
При вычислениях CRC использовались нулевые сэмплы : Да
Интерфейс                                         : Встроенный Win32-интерфейс для Win NT/2000

Выходной формат : Внутренние WAV-операции
Формат сэмплов  : 44.100 Гц; 16 бит; стерео

TOC извлечённого CD

     Трек |   Старт  | Длительность | Начальный сектор | Конечный сектор
    ---------------------------------------------------------------------
       1  |  0:00.00 |    3:32.56   |           0      |      15955     
       2  |  3:32.56 |    3:59.71   |       15956      |      33951     
       3  |  7:32.52 |    3:37.03   |       33952      |      50229     
       4  | 11:09.55 |    3:52.15   |       50230      |      67644     
       5  | 15:01.70 |    3:03.46   |       67645      |      81415     
       6  | 18:05.41 |    3:48.53   |       81416      |      98568     
       7  | 21:54.19 |    2:55.45   |       98569      |     111738     
       8  | 24:49.64 |    3:30.27   |      111739      |     127515     
       9  | 28:20.16 |    2:58.07   |      127516      |     140872     
      10  | 31:18.23 |    3:24.58   |      140873      |     156230     
      11  | 34:43.06 |    3:42.59   |      156231      |     172939     
      12  | 38:25.65 |    4:15.73   |      172940      |     192137     
      13  | 42:41.63 |    3:48.33   |      192138      |     209270     
      14  | 46:30.21 |    3:19.27   |      209271      |     224222     
      15  | 49:49.48 |    3:40.18   |      224223      |     240740     

Характеристики диапазона извлечения и сообщения об ошибках

Выбранный диапазон

     Имя файла M:\Эстонская музыка\Hellad Velled (lossless)\Hellad Velled - Mulle meeldib (2012)\Hellad Velled - Mulle meeldib.wav

     Пиковый уровень 97.7 %
     Качество диапазона 99.9 %
     CRC теста 7B1C498F
     CRC копии 7B1C498F
     Копирование... OK

Ошибок не произошло

 
AccurateRip: сводка
 
Трек  1  нет в базе данных
Трек  2  нет в базе данных
Трек  3  нет в базе данных
Трек  4  нет в базе данных
Трек  5  нет в базе данных
Трек  6  нет в базе данных
Трек  7  нет в базе данных
Трек  8  нет в базе данных
Трек  9  нет в базе данных
Трек 10  нет в базе данных
Трек 11  нет в базе данных
Трек 12  нет в базе данных
Трек 13  нет в базе данных
Трек 14  нет в базе данных
Трек 15  нет в базе данных
 
Ни одного трека нет в базе AccurateRip

Конец отчёта
Ну и специально для Сани:
pic
dimassamid
епт я в шоке, ты меня убил. Спасибки тебе за очередную мегановинку Не забудь диск в посылочку положить
Alex2GB
То, что сфоткано, это уже твоё , мой уже распечатан

dimassamid писал(а):

Alex2GB
То, что сфоткано, это уже твоё , мой уже распечатан
Группа как всегда делает ремейки на российскую поп-музыку
pic

Страница 1 из 1

new_topic  reply_topic

Текущее время: 23-Сен 00:12
Часовой пояс: GMT + 4

m Сделано с любовью PR-CY.ru Каталог webplus.info