Вход на сайт

Имя:
Пароль:

· Забыли пароль?
logo
Портал Форум
Регистрация Вход


new_topic  reply_topic

  (Ballad, Chanson) Forza Italia - 1998, FLAC (image + .cue) lossless

pic
Год выпуска: 1998
Производитель: Европа
Жанр: Ballad, Chanson, Schlager
Номер #: DC 888762 (Disky)
Продолжительность: 1:05:54

Тип издания: сборник
Аудио кодек: FLAC
Тип рипа: (image + .cue)
Битрейт аудио: lossless

Треклист:

  1. Renee & Renato – Save Your Love
  2. Toto Cutugno – Azzurra Malinconia
  3. Tony Esposito – Papa Chico
  4. Alice – Per Elisa
  5. Tullio De Piscopo – Qui Gatta Ci Cova
  6. Rosario Di Bella – Bella Come Una Rosa
  7. Roberto Vecchioni – Mi Manchi
  8. Nicoletta Magalotti – Riparto Da Zero
  9. Nino D'Angelo – Chiara
  10. Paola Mei – Prima O Poi
  11. Riccardo Fogli – Torna A Sorridere
  12. Marina Barone – Qualcosa In Piu'
  13. Claudio Lolli – Aspettando Godot
  14. Homo Sapiens – Tornero' Tornerai
  15. Nino Buonocore – Rosanna
  16. Rosanna Fratello – Una Vecchia Canzone Italiana

Код:

Exact Audio Copy V0.99 prebeta 5 from 4. May 2009

Отчёт EAC об извлечении, выполненном 16. января 2013, 16:15

Various / Forza Italia

Дисковод: TSSTcorpCDDVDW SH-S223B   Adapter: 2  ID: 0

Режим чтения                 : Достоверность
Использование точного потока : Да
Отключение кэша аудио        : Да
Использование указателей C2  : Нет

Коррекция смещения при чтении                     : 6
Способность читать области Lead-in и Lead-out     : Нет
Заполнение пропущенных сэмплов тишиной            : Да
Удаление блоков с тишиной в начале и конце        : Нет
При вычислениях CRC использовались нулевые сэмплы : Да
Интерфейс                                         : Встроенный Win32-интерфейс для Win NT/2000

Выходной формат : Внутренние WAV-операции
Формат сэмплов  : 44.100 Гц; 16 бит; стерео

TOC извлечённого CD

     Трек |   Старт  | Длительность | Начальный сектор | Конечный сектор
    ---------------------------------------------------------------------
       1  |  0:00.00 |    3:07.63   |           0      |      14087     
       2  |  3:07.63 |    4:18.67   |       14088      |      33504     
       3  |  7:26.55 |    3:59.15   |       33505      |      51444     
       4  | 11:25.70 |    3:36.34   |       51445      |      67678     
       5  | 15:02.29 |    4:28.33   |       67679      |      87811     
       6  | 19:30.62 |    4:33.73   |       87812      |     108359     
       7  | 24:04.60 |    4:18.67   |      108360      |     127776     
       8  | 28:23.52 |    5:03.43   |      127777      |     150544     
       9  | 33:27.20 |    3:08.27   |      150545      |     164671     
      10  | 36:35.47 |    4:24.20   |      164672      |     184491     
      11  | 40:59.67 |    3:29.71   |      184492      |     200237     
      12  | 44:29.63 |    4:02.05   |      200238      |     218392     
      13  | 48:31.68 |    6:03.33   |      218393      |     245650     
      14  | 54:35.26 |    3:26.25   |      245651      |     261125     
      15  | 58:01.51 |    4:01.30   |      261126      |     279230     
      16  | 62:03.06 |    3:51.05   |      279231      |     296560     

Характеристики диапазона извлечения и сообщения об ошибках

Выбранный диапазон

     Имя файла K:\Зарубежные сборники\Forza Italia (1998)\Forza Italia.wav

     Пиковый уровень 99.9 %
     Качество диапазона 99.9 %
     CRC теста 50DF968B
     CRC копии 50DF968B
     Копирование... OK

Ошибок не произошло

 
AccurateRip: сводка
 
Трек  1  точное извлечение (доверие 2)  [E05A1896]
Трек  2  точное извлечение (доверие 2)  [8D98B77F]
Трек  3  точное извлечение (доверие 2)  [BE415D1B]
Трек  4  точное извлечение (доверие 2)  [CCB396DD]
Трек  5  точное извлечение (доверие 2)  [1AD5A761]
Трек  6  точное извлечение (доверие 2)  [815F0E0B]
Трек  7  точное извлечение (доверие 2)  [04D9A3C6]
Трек  8  точное извлечение (доверие 2)  [A8C81FCF]
Трек  9  точное извлечение (доверие 2)  [0829579E]
Трек 10  точное извлечение (доверие 2)  [72C42B2B]
Трек 11  точное извлечение (доверие 2)  [05256588]
Трек 12  точное извлечение (доверие 2)  [483FF6D9]
Трек 13  точность не определена (достоверность 2)  [5D0AE41C], AccurateRip вернул [86613134]
Трек 14  точное извлечение (доверие 2)  [25B74839]
Трек 15  точное извлечение (доверие 2)  [EE17AC26]
Трек 16  точное извлечение (доверие 2)  [CCB1992D]
 
15 трек(и) скопированы точно
 1 трек(и) не удалось проверить на точность

Некоторые треки не прошли проверку на точность

Конец отчёта
dimassamid вроде как Итало.

Страница 1 из 1

new_topic  reply_topic

Текущее время: 25-Июн 01:03
Часовой пояс: GMT + 4

m Сделано с любовью PR-CY.ru Каталог webplus.info